<?xml version="1.0" standalone="no"?>
<!DOCTYPE svg PUBLIC "-//W3C//DTD SVG 1.1//EN" "http://www.w3.org/Graphics/SVG/1.1/DTD/svg11.dtd" >
<svg xmlns="http://www.w3.org/2000/svg" xmlns:xlink="http://www.w3.org/1999/xlink" version="1.1">
<metadata>
Created by FontForge 20190801 at Fri Apr 29 23:32:16 2022
 By www-data
Copyright 2015 The Public Sans Project Authors (https://github.com/uswds/public-sans)
</metadata>
<defs>
<font id="PublicSansExtraBold" horiz-adv-x="1161" >
  <font-face 
    font-family="PublicSansExtraBold"
    font-weight="800"
    font-stretch="normal"
    units-per-em="2000"
    panose-1="0 0 0 0 0 0 0 0 0 0"
    ascent="1600"
    descent="-400"
    x-height="1034"
    cap-height="1446"
    bbox="-358 -480 2645 2234"
    underline-thickness="140"
    underline-position="-440"
    unicode-range="U+000D-FB02"
  />
<missing-glyph horiz-adv-x="1288" 
d="M186 1652h918q36 0 36 -42v-1876q0 -56 -66 -56h-873q-31 0 -42 12t-11 36v1880q0 46 38 46zM1037 -111v1631q0 34 -29 34h-686zM250 1433v-1617q0 -19 9.5 -29.5t34.5 -10.5h671z" />
    <glyph glyph-name="fi" unicode="fi" horiz-adv-x="1346" 
d="M219 0v801h-179v233h179v143q0 127 78.5 198t216.5 71h257l2 -223h-128q-52 0 -72 -24.5t-20 -84.5v-80h210v-233h-203v-801h-341zM908 0v1034h324v-1034h-324zM907 1150v296h327v-296h-327z" />
    <glyph glyph-name="fl" unicode="fl" horiz-adv-x="1475" 
d="M219 0v801h-179v233h179v143q0 127 78.5 198t216.5 71h257l2 -223h-128q-52 0 -72 -24.5t-20 -84.5v-80h210v-233h-203v-801h-341zM1268 -20q-129 0 -202.5 29t-107.5 75.5t-42.5 103.5t-8.5 113v1185h333v-1141q0 -47 22 -81.5t95 -43.5l45 -3v-209q-32 -11 -66 -19.5
t-68 -8.5z" />
    <glyph glyph-name=".notdef" horiz-adv-x="1288" 
d="M186 1652h918q36 0 36 -42v-1876q0 -56 -66 -56h-873q-31 0 -42 12t-11 36v1880q0 46 38 46zM1037 -111v1631q0 34 -29 34h-686zM250 1433v-1617q0 -19 9.5 -29.5t34.5 -10.5h671z" />
    <glyph glyph-name="uni0000" horiz-adv-x="52" 
 />
    <glyph glyph-name="uni0000" horiz-adv-x="52" 
 />
    <glyph glyph-name="nonmarkingreturn" horiz-adv-x="666" 
 />
    <glyph glyph-name="CR" unicode="&#xd;" horiz-adv-x="480" 
 />
    <glyph glyph-name="space" unicode=" " horiz-adv-x="436" 
 />
    <glyph glyph-name="exclam" unicode="!" horiz-adv-x="592" 
d="M181 482l-95 964h395l-89 -964h-211zM101 0v348h365v-348h-365z" />
    <glyph glyph-name="quotedbl" unicode="&#x22;" horiz-adv-x="1009" 
d="M660 844l-84 602h332l-84 -602h-164zM185 844l-84 602h332l-84 -602h-164z" />
    <glyph glyph-name="numbersign" unicode="#" horiz-adv-x="1244" 
d="M812 -5l-172 22l212 1433l170 -17zM48 441v170h1067v-170h-1067zM381 -5l-171 22l212 1433l169 -17zM112 851v170h1067v-170h-1067z" />
    <glyph glyph-name="dollar" unicode="$" horiz-adv-x="1382" 
d="M721 -20q-274 0 -442 107t-190 336l354 3q21 -87 93 -134t183 -47q66 0 114 21t73 56t25 79q0 73 -47.5 104.5t-147.5 50.5l-231 44q-167 31 -268.5 133.5t-104.5 278.5q-2 141 76.5 242.5t212 155.5t297.5 54q170 0 295 -59t192 -160t63 -226l-345 -2q-10 81 -50 131
t-149 50q-58 0 -101 -11.5t-71 -31.5t-42 -46.5t-14 -55.5q0 -56 37.5 -88.5t143.5 -58.5l229 -51q204 -45 295 -163t91 -291q0 -129 -70 -223.5t-198.5 -146t-302.5 -51.5zM571 -182v259h289v-259h-289zM574 1389v259h289v-259h-289z" />
    <glyph glyph-name="percent" unicode="%" horiz-adv-x="1910" 
d="M348 -8l977 1470h191l-972 -1470h-196zM464 650q-108 0 -193.5 55.5t-135 147.5t-49.5 201q0 111 50.5 205t136 151.5t191.5 57.5q104 0 189 -57.5t134.5 -151.5t49.5 -205q0 -109 -49 -201t-133.5 -147.5t-190.5 -55.5zM462 819q70 0 98.5 59.5t28.5 175.5
q0 121 -30 183.5t-97 62.5t-97 -63t-30 -183q0 -115 29 -175t98 -60zM1432 -20q-107 0 -193 56t-135 148t-49 202q0 111 50 205t135.5 151.5t191.5 57.5t191 -57.5t134.5 -151.5t49.5 -205q0 -110 -49 -202t-134 -148t-192 -56zM1430 151q70 0 98.5 59.5t28.5 173.5
q0 121 -29.5 184t-97.5 63q-67 0 -96 -63.5t-29 -183.5q0 -114 28 -173.5t97 -59.5z" />
    <glyph glyph-name="ampersand" unicode="&#x26;" horiz-adv-x="1636" 
d="M577 -10q-167 0 -273 48t-156.5 132t-50.5 192q0 101 41.5 177.5t125 141.5t207.5 130q-49 56 -87.5 102t-61 95t-22.5 113q0 99 57 177.5t159 124t236 45.5q130 0 235 -40.5t166.5 -111.5t61.5 -165q0 -53 -22 -103t-62.5 -97t-97.5 -93t-128 -90l185 -218
q11 32 27.5 79t32.5 102t25 110h351q-30 -83 -79.5 -166t-102.5 -164t-95 -155l305 -356h-390l-115 133q-120 -82 -244 -112.5t-228 -30.5zM663 246q46 0 111 21t112 64l-251 289q-68 -39 -118.5 -98.5t-37.5 -136.5q9 -47 38.5 -78t68.5 -46t77 -15zM766 934
q59 38 92.5 71.5t47.5 65t14 64.5q0 45 -21 75t-55.5 44.5t-74.5 12.5q-62 -2 -97.5 -36.5t-35.5 -85.5q0 -25 10.5 -52.5t30 -55.5t46.5 -57z" />
    <glyph glyph-name="quotesingle" unicode="'" horiz-adv-x="534" 
d="M185 844l-84 602h332l-84 -602h-164z" />
    <glyph glyph-name="parenleft" unicode="(" horiz-adv-x="694" 
d="M392 -304q-85 141 -148.5 277t-99 282.5t-35.5 318.5q0 250 78 476.5t207 413.5h242q-104 -196 -166 -424.5t-62 -467.5q0 -228 58 -438.5t166 -437.5h-240z" />
    <glyph glyph-name="parenright" unicode=")" horiz-adv-x="697" 
d="M21 -304q109 227 166.5 437.5t57.5 438.5q0 239 -62 467.5t-166 424.5h242q128 -187 206 -413.5t78 -476.5q0 -172 -35 -318.5t-99 -282.5t-148 -277h-240z" />
    <glyph glyph-name="asterisk" unicode="*" horiz-adv-x="1018" 
d="M329 597l-177 124l214 253l-308 84l71 194l290 -129l-24 323h215l-30 -325l295 132l63 -196l-299 -83l210 -249l-179 -124l-170 283z" />
    <glyph glyph-name="plus" unicode="+" horiz-adv-x="1207" 
d="M483 238l-1 981h245v-981h-244zM113 605v245h981v-244z" />
    <glyph glyph-name="comma" unicode="," horiz-adv-x="586" 
d="M97 -293l118 283l-109 12v310h325v-274l-216 -331h-118z" />
    <glyph glyph-name="hyphen" unicode="-" horiz-adv-x="800" 
d="M119 392v243l562 1v-244h-562z" />
    <glyph glyph-name="period" unicode="." horiz-adv-x="580" 
d="M95 0v355h365v-355h-365z" />
    <glyph glyph-name="slash" unicode="/" horiz-adv-x="790" 
d="M22 -18l507 1464h231l-508 -1464h-230z" />
    <glyph glyph-name="zero" unicode="0" horiz-adv-x="1319" 
d="M661 -22q-273 0 -425 193.5t-152 547.5q0 238 69.5 405t199 254.5t309.5 87.5q268 0 420.5 -194.5t152.5 -551.5q0 -355 -150.5 -548.5t-423.5 -193.5zM660 252q119 0 170 106t51 360q0 262 -52 373t-169 111t-170 -112t-53 -372q0 -252 52.5 -359t170.5 -107z" />
    <glyph glyph-name="one" unicode="1" horiz-adv-x="876" 
d="M332 0v1053h-249v184q122 0 200.5 26t120 73t49.5 110h222v-1446h-343z" />
    <glyph glyph-name="two" unicode="2" horiz-adv-x="1305" 
d="M107 0v158v81q0 110 41 189.5t108 138.5t147.5 103.5t161 82t147.5 75t108 82t41 105.5q0 75 -53 124t-145 49q-94 0 -165.5 -55.5t-91.5 -178.5h-323q1 144 65.5 260t194.5 184t328 68q170 0 292.5 -56.5t188.5 -157.5t66 -234q0 -109 -39.5 -187t-105 -133.5
t-143 -95.5t-155.5 -73t-143.5 -66t-105 -74t-39.5 -99v-7h726v-283h-1106z" />
    <glyph glyph-name="three" unicode="3" horiz-adv-x="1361" 
d="M655 -22q-185 0 -311.5 58t-192.5 166t-67 260h324q22 -119 90.5 -166t158.5 -47q81 0 139 23t88.5 63t30.5 93q0 50 -29.5 88.5t-83.5 60.5t-126 25l-141 7v266l125 8q70 4 120.5 26t77.5 59t27 88q0 48 -31.5 82t-83.5 51.5t-116 17.5q-65 0 -117.5 -20t-85.5 -67
t-40 -129h-323q0 162 76 267.5t206.5 156.5t291.5 51q167 0 299 -41t208.5 -128.5t76.5 -225.5q0 -106 -59.5 -186t-199.5 -127q74 -20 140 -63t108.5 -112t42.5 -168q0 -110 -49.5 -192t-136 -136.5t-199 -81.5t-238.5 -27z" />
    <glyph glyph-name="four" unicode="4" horiz-adv-x="1338" 
d="M741 0l1 298h-659v272l653 876h331v-867h216v-281h-216v-298h-326zM395 579h349v466z" />
    <glyph glyph-name="five" unicode="5" horiz-adv-x="1381" 
d="M716 -22q-146 0 -271.5 42.5t-218 116t-142.5 167.5l259 165q41 -61 87 -111.5t106.5 -80t142.5 -29.5q118 0 190 60.5t72 151.5q0 57 -31 105.5t-88 77.5t-136 29q-38 0 -71.5 -6.5t-70 -22.5t-83.5 -45q-16 -7 -23 -6.5t-25 8.5l-238 120l67 726h958l-14 -276h-680
l-25 -294q84 34 150.5 51t148.5 17q150 0 267 -55.5t183.5 -161t66.5 -255.5q0 -154 -71 -264.5t-201 -170t-309 -59.5z" />
    <glyph glyph-name="six" unicode="6" horiz-adv-x="1355" 
d="M700 -22q-192 0 -330.5 89.5t-212 250.5t-73.5 375q0 240 76 413.5t216.5 266.5t333.5 93q143 0 264 -52t196 -149t79 -235h-309q-26 87 -81 129t-141 42q-93 0 -155 -53.5t-87.5 -144.5t-11.5 -203q36 36 85.5 60t106.5 36.5t117 12.5q149 0 261 -55t174.5 -153
t62.5 -229q0 -140 -73 -252t-202 -177t-296 -65zM687 234q60 0 111.5 28.5t82.5 79t31 114.5q0 71 -31.5 116t-82.5 66.5t-110 21.5q-53 0 -104 -23.5t-84 -57t-33 -65.5q0 -90 27.5 -152.5t77.5 -95t115 -32.5z" />
    <glyph glyph-name="seven" unicode="7" horiz-adv-x="1276" 
d="M347 0q4 83 32 212.5t86 288.5t151 330.5t226 338.5h-759v276h1110v-276q-65 -76 -132 -185.5t-129 -237.5t-111 -260.5t-78 -258t-30 -228.5h-366z" />
    <glyph glyph-name="eight" unicode="8" horiz-adv-x="1363" 
d="M681 -21q-179 0 -313 52t-209 148t-75 227q0 82 40 155.5t102 123.5t125 64q-83 42 -144 119t-61 186q0 133 70 225t191.5 139.5t273.5 47.5q153 0 274 -47.5t191 -139.5t70 -225q0 -109 -60 -186t-145 -119q64 -14 125.5 -64t102 -123.5t40.5 -155.5q0 -131 -74.5 -227
t-209.5 -148t-314 -52zM681 232q112 0 174.5 50.5t62.5 134.5q0 56 -28.5 99t-81 67t-127.5 24q-73 0 -126 -24t-81.5 -67t-28.5 -99q0 -84 63 -134.5t173 -50.5zM681 877q84 0 140.5 48.5t56.5 133.5t-56.5 134.5t-140.5 49.5q-83 0 -140 -49.5t-57 -134.5t57 -133.5
t140 -48.5z" />
    <glyph glyph-name="nine" unicode="9" horiz-adv-x="1349" 
d="M636 -22q-142 0 -264.5 55t-199.5 154t-81 231h321q15 -77 70 -126t139 -49q93 0 165.5 41t110 133t25.5 245q-31 -43 -77.5 -74t-108 -48t-137.5 -17q-149 0 -265 56t-182 158t-66 240q0 141 71 251.5t198 174t295 63.5q192 0 330 -88t211.5 -247.5t73.5 -374.5
q0 -266 -77 -438.5t-217.5 -256t-334.5 -83.5zM661 789q54 0 104.5 23.5t84 57t33.5 64.5q0 92 -27.5 154t-77.5 94t-116 32q-59 0 -107 -28t-76 -78t-28 -115q0 -99 61.5 -151.5t148.5 -52.5z" />
    <glyph glyph-name="colon" unicode=":" horiz-adv-x="580" 
d="M95 668v349h365v-349h-365zM95 6v348h365v-348h-365z" />
    <glyph glyph-name="semicolon" unicode=";" horiz-adv-x="591" 
d="M95 -319l138 319h-127v350h365v-310l-240 -359h-136zM105 656v355h365v-355h-365z" />
    <glyph glyph-name="less" unicode="&#x3c;" horiz-adv-x="1183" 
d="M1070 176l-957 369v277l957 370v-285l-590 -226l590 -218v-287z" />
    <glyph glyph-name="equal" unicode="=" horiz-adv-x="1207" 
d="M113 795v244h981v-244h-981zM113 331v244l981 1v-245h-981z" />
    <glyph glyph-name="greater" unicode="&#x3e;" horiz-adv-x="1185" 
d="M113 176v287l592 218l-592 226v285l959 -370v-277z" />
    <glyph glyph-name="question" unicode="?" horiz-adv-x="1082" 
d="M376 488q0 109 31.5 187.5t78.5 137t94 105.5t79 92.5t32 99.5q0 60 -46.5 94.5t-112.5 34.5q-49 0 -94.5 -22t-82 -63.5t-58.5 -98.5l-286 65q65 169 198.5 257.5t326.5 88.5q147 0 257 -46.5t171 -123t61 -167.5q0 -96 -38.5 -162t-95 -117.5t-113 -101t-95 -111
t-38.5 -149.5h-269zM328 0v348h364v-348h-364z" />
    <glyph glyph-name="at" unicode="@" horiz-adv-x="1651" 
d="M834 -220q-181 0 -322.5 57t-241 157.5t-151 232.5t-51.5 283q0 158 55.5 298t160.5 248.5t254.5 170t336.5 61.5q134 0 260.5 -36t227.5 -112t161 -195t60 -284q0 -149 -49 -262t-136.5 -177t-202.5 -64q-88 0 -131.5 30.5t-61.5 57.5q-8 12 -12 11t-13 -12
q-43 -50 -109 -82.5t-147 -32.5q-86 0 -155 42.5t-109 120.5t-39 183q0 117 48.5 220t139 166.5t212.5 63.5q83 0 128 -27t79 -64q6 -6 10.5 -4t5.5 12l8 33h189l-71 -424q-11 -64 5.5 -87t46.5 -23q41 0 79.5 32.5t64.5 100.5t26 174q0 131 -43 220t-116 142t-165 76
t-192 23q-161 0 -275.5 -47.5t-187.5 -130t-108 -190.5t-35 -228q0 -137 41.5 -243t120.5 -178.5t189.5 -110t247.5 -37.5q91 0 153.5 15.5t110.5 42.5t97 59l97 -130q-71 -60 -198.5 -106t-292.5 -46zM783 327q53 0 95.5 32t67.5 82.5t27 105.5q3 50 -13 91.5t-47.5 66.5
t-75.5 25q-50 0 -92.5 -31t-68 -83t-25.5 -116q0 -69 32 -121t100 -52z" />
    <glyph glyph-name="A" unicode="A" horiz-adv-x="1467" 
d="M43 0l514 1446h353l515 -1446h-338l-107 308h-488l-109 -308h-340zM566 601h335l-167 518z" />
    <glyph glyph-name="B" unicode="B" horiz-adv-x="1382" 
d="M148 0v1446h551q294 0 432 -98t138 -283q0 -103 -52.5 -181.5t-189.5 -141.5q92 -25 147.5 -66t83 -89t36.5 -98t9 -96q0 -201 -135 -297t-441 -96h-579zM489 259h249q108 0 163.5 49.5t55.5 122.5q0 52 -26.5 89.5t-73 58t-107.5 20.5h-261v-340zM489 865h261
q41 0 75 10t60 30t41 49.5t15 67.5q0 79 -59 122t-148 43h-245v-322z" />
    <glyph glyph-name="C" unicode="C" horiz-adv-x="1463" 
d="M764 -20q-206 0 -357 96.5t-234 267.5t-83 395q0 223 82 386t233.5 252t358.5 89q168 0 299.5 -66.5t212.5 -183t97 -265.5h-357q-12 72 -45.5 125.5t-88 83.5t-129.5 30q-87 0 -152 -43.5t-100.5 -144t-35.5 -268.5q0 -256 78.5 -367t209.5 -111q75 0 129.5 36t88 96.5
t45.5 131.5h357q-14 -107 -50.5 -204.5t-105.5 -173.5t-179.5 -119t-273.5 -43z" />
    <glyph glyph-name="D" unicode="D" horiz-adv-x="1464" 
d="M148 0v1446h71.5t134 0.5t150.5 0t121 -2.5q262 -8 427.5 -98.5t243 -248t77.5 -368.5q0 -218 -81.5 -382t-248.5 -255.5t-425 -91.5h-470zM490 271h138q99 0 188 45t145.5 146t56.5 271q0 151 -48 249t-135 145.5t-205 47.5h-140v-904z" />
    <glyph glyph-name="E" unicode="E" horiz-adv-x="1282" 
d="M148 0v1446h1031l-2 -284h-686v-295h585v-278h-587v-302l696 -1v-286h-1037z" />
    <glyph glyph-name="F" unicode="F" horiz-adv-x="1245" 
d="M148 0v1446h1022l-1 -281h-679v-312h578v-274h-578v-579h-342z" />
    <glyph glyph-name="G" unicode="G" horiz-adv-x="1541" 
d="M758 -20q-202 0 -352.5 92t-233 258t-82.5 388q0 228 87 396t242 260t359 92q137 0 248.5 -42.5t192 -115.5t124.5 -165.5t47 -191.5h-357q-14 64 -47.5 116.5t-88 83.5t-127.5 31q-84 0 -154 -44t-112 -143.5t-42 -266.5q0 -138 28.5 -226t75.5 -137t104 -68.5
t114 -19.5q53 0 95.5 17t74 44t51.5 59t26 64l15 70h-276v232l634 -3v-760h-228v174q-36 -43 -88.5 -88t-131.5 -75.5t-198 -30.5z" />
    <glyph glyph-name="H" unicode="H" horiz-adv-x="1543" 
d="M148 0v1446h341v-564h566v564h340v-1446h-340v601h-566v-601h-341z" />
    <glyph glyph-name="I" unicode="I" horiz-adv-x="637" 
d="M148 0v1446h341v-1446h-341z" />
    <glyph glyph-name="J" unicode="J" horiz-adv-x="816" 
d="M298 -20q-65 0 -140.5 8.5t-114.5 17.5l3 309q28 -5 64 -11.5t74 -6.5q103 0 137.5 53t34.5 169v927h341v-1016q0 -149 -32 -249t-118.5 -150.5t-248.5 -50.5z" />
    <glyph glyph-name="K" unicode="K" horiz-adv-x="1465" 
d="M148 0v1446h354v-623l473 623h385l-417 -556l477 -890h-369l-352 642l-197 -245v-397h-354z" />
    <glyph glyph-name="L" unicode="L" horiz-adv-x="1156" 
d="M148 0l1 1446h341v-1163h603v-283h-945z" />
    <glyph glyph-name="M" unicode="M" horiz-adv-x="1865" 
d="M148 0v1446h502l282 -956l285 956h499v-1446h-342v1077l-315 -1077h-254l-315 1074v-1074h-342z" />
    <glyph glyph-name="N" unicode="N" horiz-adv-x="1590" 
d="M148 0v1446h341l612 -882v882h340v-1446h-307l-645 928v-928h-341z" />
    <glyph glyph-name="O" unicode="O" horiz-adv-x="1546" 
d="M775 -20q-210 0 -363.5 90.5t-237.5 256.5t-84 393q0 229 85 396t239.5 258.5t360.5 91.5t358.5 -91.5t237 -258.5t84.5 -396q0 -227 -83 -393t-236 -256.5t-361 -90.5zM775 256q93 0 163 45.5t108.5 146.5t38.5 267q0 171 -39 275.5t-109 152t-162 47.5q-93 0 -163 -48
t-109.5 -152.5t-39.5 -274.5q0 -166 39.5 -267t109.5 -146.5t163 -45.5z" />
    <glyph glyph-name="P" unicode="P" horiz-adv-x="1319" 
d="M148 0v1446h553q158 0 285 -56t200.5 -163.5t73.5 -262.5q0 -143 -63.5 -245.5t-179 -157t-272.5 -54.5h-255v-507h-342zM487 765h248q91 0 150.5 64.5t59.5 152.5q0 91 -63.5 149.5t-149.5 58.5h-245v-425z" />
    <glyph glyph-name="Q" unicode="Q" horiz-adv-x="1570" 
d="M1454 -248q-105 0 -192 15.5t-165.5 66.5t-159.5 158q-51 -7 -87.5 -9.5t-74.5 -2.5q-210 0 -363.5 90t-237.5 256t-84 394q0 229 85 396.5t239 258.5t361 91q206 0 359.5 -91t238 -258.5t84.5 -396.5q0 -187 -56.5 -331.5t-166.5 -247.5q19 -52 81 -85.5t139 -34.5v-269
zM775 256q146 0 228.5 105t82.5 356q0 255 -83.5 364t-227.5 109q-145 0 -227.5 -109t-82.5 -365q0 -250 81.5 -355t228.5 -105z" />
    <glyph glyph-name="R" unicode="R" horiz-adv-x="1409" 
d="M148 0v1446h633q181 0 293 -58.5t164 -160t52 -230.5q0 -113 -32 -191.5t-86.5 -132t-122.5 -90.5l261 -583h-350l-223 528h-248v-528h-341zM489 785h245q96 0 154.5 61t58.5 145q0 88 -60 144t-143 56h-255v-406z" />
    <glyph glyph-name="S" unicode="S" horiz-adv-x="1404" 
d="M715 -20q-110 0 -216 27.5t-194.5 83t-145.5 139.5t-67 197h348q13 -59 51 -99.5t100 -62t144 -21.5q58 0 113 15.5t91 49.5t36 90q0 68 -53 98.5t-135 47.5l-259 52q-122 24 -210.5 76t-136 137t-47.5 205q0 141 78 241.5t211.5 154t300.5 53.5q184 0 313 -58
t197 -159.5t71 -229.5h-340q-6 65 -39 104.5t-87 58.5t-125 19q-119 0 -171 -46t-52 -102t41 -92t136 -54l233 -45q146 -25 237.5 -84.5t135 -146t43.5 -195.5q0 -136 -78.5 -238t-213.5 -159t-310 -57z" />
    <glyph glyph-name="T" unicode="T" horiz-adv-x="1253" 
d="M457 0v1145h-423v301h1185v-301h-420v-1145h-342z" />
    <glyph glyph-name="U" unicode="U" horiz-adv-x="1470" 
d="M749 -20q-222 0 -353.5 74t-189.5 208.5t-58 316.5v867h346v-886q0 -156 74 -224.5t181 -68.5q72 0 130.5 30t92.5 94.5t34 168.5v886h345v-871q0 -180 -58 -313.5t-190 -207.5t-354 -74z" />
    <glyph glyph-name="V" unicode="V" horiz-adv-x="1436" 
d="M528 0l-494 1446h323l361 -1049l360 1049h324l-495 -1446h-379z" />
    <glyph glyph-name="W" unicode="W" horiz-adv-x="1950" 
d="M465 0l-431 1446h331l247 -865l242 865h242l248 -865l242 865h331l-430 -1446h-262l-250 866l-252 -866h-258z" />
    <glyph glyph-name="X" unicode="X" horiz-adv-x="1460" 
d="M43 0l476 732l-463 714h421l257 -430l254 430h359l-439 -667l509 -779h-424l-296 488l-290 -488h-364z" />
    <glyph glyph-name="Y" unicode="Y" horiz-adv-x="1389" 
d="M522 0v605l-505 841h368l310 -550l305 550h372l-509 -841v-605h-341z" />
    <glyph glyph-name="Z" unicode="Z" horiz-adv-x="1369" 
d="M99 0v160l707 1004h-651v282h1140v-153l-720 -1007h709v-286h-1185z" />
    <glyph glyph-name="bracketleft" unicode="[" horiz-adv-x="705" 
d="M134 -322v1768h497v-187h-222v-1394h222v-187h-497z" />
    <glyph glyph-name="backslash" unicode="\" horiz-adv-x="790" 
d="M529 -18l-507 1464h230l508 -1464h-231z" />
    <glyph glyph-name="bracketright" unicode="]" horiz-adv-x="705" 
d="M74 -322v187h222v1394h-222v187h497v-1768h-497z" />
    <glyph glyph-name="asciicircum" unicode="^" horiz-adv-x="978" 
d="M672 239l-195 478l-196 -477h-222l318 742q20 45 60 61.5t80.5 2t60.5 -61.5l315 -745h-221z" />
    <glyph glyph-name="underscore" unicode="_" horiz-adv-x="1138" 
d="M113 -294v242h903v-242h-903z" />
    <glyph glyph-name="grave" unicode="`" horiz-adv-x="569" 
d="M318 1155l-307 291h342l206 -291h-241z" />
    <glyph glyph-name="a" unicode="a" horiz-adv-x="1145" 
d="M428 -20q-98 0 -178.5 37.5t-127.5 109.5t-47 176q0 169 130 260t408 92l105 1v53q0 61 -34.5 91.5t-107.5 29.5q-52 -1 -105 -24.5t-75 -86.5h-279q6 117 69 191t168.5 109t236.5 35q170 0 269 -40.5t141.5 -113t42.5 -170.5v-730h-283l-29 171q-49 -109 -123 -150
t-181 -41zM545 199q34 0 65 12t55 33.5t38 47.5t15 56v141l-84 -1q-52 0 -107.5 -14t-93.5 -46.5t-38 -89.5q0 -65 45 -102t105 -37z" />
    <glyph glyph-name="b" unicode="b" horiz-adv-x="1227" 
d="M717 -20q-69 0 -122 18t-92 49.5t-65 74t-42 90.5l-40 -212h-243v1486h341v-581q21 37 52.5 64.5t71 46t83.5 28.5t92 10q191 0 299 -140.5t108 -390.5q0 -164 -51 -286t-149.5 -189.5t-242.5 -67.5zM639 221q81 0 135.5 68.5t54.5 235.5q0 153 -53.5 219.5t-137.5 66.5
q-58 0 -99.5 -30t-63 -93.5t-21.5 -162.5q0 -168 48 -236t137 -68z" />
    <glyph glyph-name="c" unicode="c" horiz-adv-x="1098" 
d="M578 -20q-146 0 -261.5 65.5t-182 185.5t-66.5 281t65 282.5t180 190.5t265 69q138 0 235.5 -57.5t151 -153t58.5 -208.5h-279q-5 35 -23 73t-51.5 64.5t-88.5 26.5q-89 0 -143.5 -70.5t-54.5 -212.5q0 -140 55.5 -219t148.5 -79q54 0 88 29t51 67t21 67h272
q-3 -109 -57.5 -200t-152 -146t-231.5 -55z" />
    <glyph glyph-name="d" unicode="d" horiz-adv-x="1227" 
d="M510 -20q-211 0 -326.5 146t-115.5 397q0 163 47.5 282t138.5 184t221 65q47 0 91 -10t83.5 -28.5t71 -46t52.5 -64.5v581h342v-1486h-243l-40 212q-16 -48 -42.5 -90.5t-65 -74t-91.5 -49.5t-123 -18zM588 221q89 0 137 68t48 236q0 99 -21.5 162.5t-62 93.5t-100.5 30
q-81 0 -135.5 -64.5t-54.5 -221.5q0 -162 53 -233t136 -71z" />
    <glyph glyph-name="e" unicode="e" 
d="M604 -20q-157 0 -276.5 65t-186 183t-66.5 277q0 151 60.5 275.5t175.5 199t277 74.5q164 0 274 -68.5t165.5 -188t55.5 -273.5v-85h-673q-1 -71 22 -119.5t65 -73.5t98 -25q64 0 113.5 26.5t72.5 92.5h304q-17 -113 -89.5 -193.5t-176.5 -123.5t-215 -43zM409 635h358
q0 51 -20 93.5t-59.5 67.5t-99.5 25q-53 0 -93.5 -26.5t-63 -69t-22.5 -90.5z" />
    <glyph glyph-name="f" unicode="f" horiz-adv-x="794" 
d="M219 0v801h-179v233h179v143q0 127 78.5 198t216.5 71h257l2 -223h-128q-52 0 -72 -24.5t-20 -84.5v-80h210v-233h-203v-801h-341z" />
    <glyph glyph-name="g" unicode="g" horiz-adv-x="1263" 
d="M611 -342q-291 0 -437.5 69.5t-146.5 176.5q0 52 28.5 86t66.5 54t70 29.5t39 12.5q-16 8 -48.5 26t-60.5 51t-28 86q0 59 55.5 108.5t169.5 66.5q-107 49 -161 134t-54 169q0 103 68.5 175.5t183.5 110t256 37.5q108 0 176 -22.5t126 -55.5q26 10 65 25.5t84.5 33t90 36
t82.5 33.5l-2 -251l-177 -26q8 -25 12.5 -52.5t4.5 -42.5q0 -88 -54.5 -168t-163 -130.5t-267.5 -50.5q-21 0 -59 1.5t-61 3.5q-37 -3 -51 -10.5t-14 -19.5q0 -23 45 -28.5t128 -11.5q30 -1 86.5 -4t124.5 -8q202 -14 298 -98t96 -205q0 -148 -142.5 -244.5t-428.5 -96.5z
M665 -158q112 0 153 24t41 66q0 40 -37 65t-106 29l-212 14q-50 3 -82.5 -11t-47.5 -37t-15 -48q0 -57 74.5 -79.5t231.5 -22.5zM600 563q69 0 111 42t42 111q0 70 -42 116t-111 46t-112 -46.5t-43 -115.5q0 -68 42 -110.5t113 -42.5z" />
    <glyph glyph-name="h" unicode="h" horiz-adv-x="1199" 
d="M113 0v1486h339v-600q24 33 59.5 68t89.5 59t136 24q98 0 180 -39t131.5 -114t49.5 -184v-700h-341v653q0 61 -45 92.5t-103 31.5q-38 0 -74 -15t-59 -44t-23 -71v-647h-340z" />
    <glyph glyph-name="i" unicode="i" horiz-adv-x="552" 
d="M114 0v1034h324v-1034h-324zM113 1150v296h327v-296h-327z" />
    <glyph glyph-name="j" unicode="j" horiz-adv-x="600" 
d="M109 -332q-80 0 -107 16l-27 16l-1 227l71 9q58 10 79.5 33.5t21.5 63.5v1001h341v-1002q0 -181 -91.5 -272.5t-286.5 -91.5zM145 1150v296h343v-296h-343z" />
    <glyph glyph-name="k" unicode="k" horiz-adv-x="1176" 
d="M113 0v1486h340v-840l332 388h360l-376 -420l384 -614h-334l-260 413l-106 -117v-296h-340z" />
    <glyph glyph-name="l" unicode="l" horiz-adv-x="681" 
d="M474 -20q-129 0 -202.5 29t-107.5 75.5t-42.5 103.5t-8.5 113v1185h333v-1141q0 -47 22 -81.5t95 -43.5l45 -3v-209q-32 -11 -66 -19.5t-68 -8.5z" />
    <glyph glyph-name="m" unicode="m" horiz-adv-x="1819" 
d="M113 0v1034h334v-145q49 68 131 116.5t202 48.5q52 0 106 -18.5t101.5 -55t80.5 -90.5q50 68 131 116t181 48q58 0 118 -20.5t109.5 -64t80 -113.5t30.5 -171v-685h-341v640q0 49 -21.5 79.5t-54.5 45t-69 14.5q-34 0 -68 -14t-57 -43t-23 -74v-648h-340v653
q0 41 -21.5 69t-54 42.5t-67.5 14.5q-34 0 -68.5 -14.5t-57 -43.5t-22.5 -73v-648h-340z" />
    <glyph glyph-name="n" unicode="n" horiz-adv-x="1200" 
d="M113 0v1034h336v-145q22 36 58.5 71t93 58t137.5 23q93 0 175.5 -36t134.5 -114.5t52 -205.5v-685h-342v640q0 68 -44 102.5t-101 34.5q-38 0 -75 -14.5t-61 -43t-24 -71.5v-648h-340z" />
    <glyph glyph-name="o" unicode="o" 
d="M580 -20q-156 0 -271 66.5t-178 186t-63 278.5q0 162 64.5 284.5t180 190.5t269.5 68q157 0 271.5 -68.5t177 -191t62.5 -283.5q0 -155 -62 -274.5t-177 -188t-274 -68.5zM582 230q69 0 108 43.5t55 111t16 137.5q0 69 -15 135t-54 108.5t-110 42.5t-110.5 -41.5
t-55.5 -107t-16 -137.5q0 -68 15 -135.5t54.5 -112t112.5 -44.5z" />
    <glyph glyph-name="p" unicode="p" horiz-adv-x="1225" 
d="M113 -322v1356h341l1 -134q26 38 61.5 67t76.5 48t85.5 29t88.5 10q112 0 200 -57t139 -175t51 -299q0 -193 -58 -312.5t-154.5 -175t-212.5 -55.5q-41 0 -81 10.5t-76 31.5t-67 50.5t-55 68.5v-463h-340zM646 226q80 0 137 70t57 225q0 138 -55.5 214t-138.5 76
q-99 0 -146 -84.5t-47 -205.5q0 -74 20.5 -142t63 -110.5t109.5 -42.5z" />
    <glyph glyph-name="q" unicode="q" horiz-adv-x="1225" 
d="M771 -322v463q-23 -39 -54 -68.5t-67.5 -50.5t-76 -31.5t-80.5 -10.5q-114 0 -211 54t-155.5 173.5t-58.5 315.5q0 178 49.5 296.5t137.5 176.5t202 58q44 0 88.5 -10t86 -29t76.5 -48t62 -67v134h342v-1356h-341zM579 226q66 0 109 42.5t63.5 110.5t20.5 142
q0 121 -46.5 205.5t-146.5 84.5q-79 0 -136.5 -73.5t-57.5 -216.5q0 -150 55.5 -222.5t138.5 -72.5z" />
    <glyph glyph-name="r" unicode="r" horiz-adv-x="844" 
d="M113 0v1034h328v-265q24 81 69.5 145.5t112.5 102t155 37.5q11 0 19.5 -0.5t10.5 -2.5v-323q-5 2 -12.5 3t-15.5 1q-98 10 -161.5 -3t-100 -42t-51 -69t-14.5 -87v-531h-340z" />
    <glyph glyph-name="s" unicode="s" horiz-adv-x="1073" 
d="M549 -20q-108 0 -211 36t-176 115t-94 206h292q13 -53 47 -81t72.5 -38t67.5 -10q74 0 120 21t46 64q0 36 -28.5 56.5t-99.5 32.5l-167 31q-143 27 -230 99.5t-88 205.5q-1 95 51 171t153 120.5t247 44.5q202 0 321 -88t120 -243h-280q-11 53 -56.5 80.5t-108.5 27.5
q-64 0 -107.5 -21.5t-43.5 -64.5q0 -33 38 -53t121 -36l151 -31q93 -23 151 -61.5t89.5 -83.5t43 -89.5t11.5 -78.5q0 -107 -58.5 -181t-161 -112.5t-232.5 -38.5z" />
    <glyph glyph-name="t" unicode="t" horiz-adv-x="857" 
d="M588 -13q-149 0 -230.5 37.5t-113 103t-31.5 148.5v525h-168v233h180l87 317h241v-315h227v-235h-227l1 -510q0 -31 9.5 -46t26.5 -20t41 -5h151v-205q-21 -9 -65 -18.5t-129 -9.5z" />
    <glyph glyph-name="u" unicode="u" horiz-adv-x="1204" 
d="M493 -20q-67 0 -136 22t-127 64.5t-93.5 104t-35.5 141.5v722h341v-676q0 -58 40 -96.5t115 -38.5q72 0 114 37.5t42 99.5v674h338v-1034h-254l-40 209q-19 -97 -70 -146.5t-114.5 -66t-119.5 -16.5z" />
    <glyph glyph-name="v" unicode="v" horiz-adv-x="1055" 
d="M413 0l-396 1034h305l204 -593h5l198 593h310l-396 -1034h-230z" />
    <glyph glyph-name="w" unicode="w" horiz-adv-x="1585" 
d="M361 0l-342 1034h299l179 -572h4l171 572h239l170 -573h4l176 573h306l-352 -1034h-256l-174 564l-177 -564h-247z" />
    <glyph glyph-name="x" unicode="x" horiz-adv-x="1197" 
d="M23 0l396 539l-361 495h352l191 -257l189 257h353l-365 -495l396 -539h-352l-223 305l-224 -305h-352z" />
    <glyph glyph-name="y" unicode="y" horiz-adv-x="1152" 
d="M301 -330q-113 0 -161 20l-48 20v216l100 -5q72 -5 114 5t63 27.5t28.5 35t9.5 24.5l12 39l-402 982h336l222 -618l227 618h333l-411 -1007q-61 -147 -126 -224.5t-138.5 -105t-158.5 -27.5z" />
    <glyph glyph-name="z" unicode="z" horiz-adv-x="1007" 
d="M56 0v184l478 615h-451v235h865v-184l-478 -615h481v-235h-895z" />
    <glyph glyph-name="braceleft" unicode="{" horiz-adv-x="820" 
d="M586 -322q-79 0 -156 27.5t-127 83t-50 142.5v395q0 47 -23 84t-73 58.5t-130 21.5v164q121 0 173.5 42.5t52.5 129.5v370q0 85 50.5 140.5t126 82.5t151.5 27h166v-187h-95q-59 0 -85.5 -14t-32.5 -38t-6 -51v-384q-3 -68 -37 -108.5t-83 -60.5t-96 -25
q-12 -1 -12.5 -5.5t12.5 -6.5q46 -4 95 -22t83.5 -62t37.5 -125v-388q0 -55 26 -79.5t98 -24.5h95v-187h-161z" />
    <glyph glyph-name="bar" unicode="|" horiz-adv-x="541" 
d="M149 -322l-1 1974h245v-1974h-244z" />
    <glyph glyph-name="braceright" unicode="}" horiz-adv-x="815" 
d="M24 -322v187h95q72 0 98 24.5t26 79.5v388q3 81 37.5 125t83.5 62t95 22q14 2 13 6.5t-13 5.5q-47 5 -96 25t-83 60.5t-37 108.5v384q0 27 -6 51t-32 38t-86 14h-95v187h166q76 0 152 -27t126 -82.5t50 -140.5v-370q0 -87 52.5 -129.5t173.5 -42.5v-164
q-80 0 -129.5 -21.5t-73 -58.5t-23.5 -84v-395q0 -87 -50 -142.5t-127 -83t-156 -27.5h-161z" />
    <glyph glyph-name="asciitilde" unicode="~" horiz-adv-x="1264" 
d="M208 533l-96 165q81 85 158 141.5t179 56.5q63 0 111.5 -19.5t89.5 -45t81.5 -45.5t87.5 -20q70 0 125.5 45.5t92.5 109.5l99 -163q-57 -101 -140.5 -151.5t-170.5 -50.5q-60 0 -109 20t-92.5 46t-86 46t-92.5 20q-76 0 -131 -48.5t-106 -106.5z" />
    <glyph glyph-name="uni00A0" unicode="&#xa0;" horiz-adv-x="436" 
 />
    <glyph glyph-name="exclamdown" unicode="&#xa1;" horiz-adv-x="594" 
d="M86 -322l95 872h209l93 -872h-397zM101 686v348h365v-348h-365z" />
    <glyph glyph-name="cent" unicode="&#xa2;" horiz-adv-x="1138" 
d="M612 202q-146 0 -261.5 65.5t-182 185.5t-66.5 281t65 282.5t180 190.5t265 69q138 0 235.5 -57.5t151 -153t58.5 -208.5h-279q-6 35 -23.5 73t-51.5 64.5t-89 26.5q-88 0 -142.5 -70.5t-54.5 -212.5q0 -140 55.5 -219t148.5 -79q54 0 87.5 29t51 67t21.5 67h272
q-4 -109 -58 -200t-151.5 -146t-231.5 -55zM502 0v359h219v-359h-219zM502 1087v359h219v-359h-219z" />
    <glyph glyph-name="sterling" unicode="&#xa3;" horiz-adv-x="1328" 
d="M45 0v280h65q75 0 121 40.5t46 134.5q0 47 -4.5 92.5t-14.5 125.5h-205v182h166l-15 187q-11 105 23.5 183.5t102 132.5t156.5 81t187 27q115 0 211 -35.5t168 -104.5t115 -169l-295 -87q-31 70 -62 100t-84 30q-38 0 -67.5 -17t-45.5 -49.5t-16 -78.5q0 -34 7 -82
t19 -118h280v-182h-255q4 -67 2.5 -111t-14.5 -91q-9 -45 -23.5 -76.5t-37.5 -57.5t-55 -55h234q94 0 137.5 36t74.5 122l286 -59q-48 -189 -164.5 -285t-306.5 -96h-736z" />
    <glyph glyph-name="currency" unicode="&#xa4;" horiz-adv-x="1191" 
d="M200 206l-137 141l138 136q-36 58 -53.5 114.5t-17.5 128.5q0 128 60 227q9 20 -4 33l-123 123l137 142l140 -140q54 35 117 55t125 20q129 0 240 -67q14 -7 23 2l112 114l137 -141l-124 -122q36 -56 54.5 -116.5t18.5 -127.5q0 -62 -16.5 -124t-51.5 -113q-4 -8 1 -12
l119 -117l-137 -141l-123 124q-55 -35 -116.5 -55t-127.5 -20q-128 0 -234 63q-19 11 -33 -4zM586 487q69 0 124 34t86 88.5t31 118.5q0 63 -31 117.5t-86 89t-124 34.5q-68 0 -122.5 -34.5t-86 -89t-31.5 -117.5q0 -64 31.5 -118.5t86 -88.5t122.5 -34z" />
    <glyph glyph-name="yen" unicode="&#xa5;" horiz-adv-x="1361" 
d="M494 0v603l-515 843h442l304 -541l300 541h357l-501 -808v-638h-387zM199 205v177h977v-177h-977zM199 526v179h977v-178z" />
    <glyph glyph-name="brokenbar" unicode="&#xa6;" horiz-adv-x="541" 
d="M149 830l-1 822h245v-822h-244zM149 -322l-1 822h245v-822h-244z" />
    <glyph glyph-name="section" unicode="&#xa7;" horiz-adv-x="1046" 
d="M521 -161q-123 0 -218.5 33t-160.5 86.5t-94 114.5l206 100q39 -49 98 -90.5t161 -41.5q71 0 116 23t45 70q0 35 -29.5 63.5t-111.5 59.5l-144 54q-168 63 -245 137t-77 194q0 93 45 159t122 105q-55 34 -88 71.5t-47.5 79t-14.5 88.5q0 90 50 163t143.5 115.5
t223.5 42.5q108 0 195.5 -32.5t149 -84t90.5 -110.5l-206 -99q-41 46 -93.5 85.5t-127.5 39.5q-58 0 -91.5 -24t-33.5 -63q0 -32 30 -53.5t64 -34.5l150 -57q173 -65 251 -140.5t78 -198.5q0 -92 -41.5 -155t-113.5 -107q92 -51 131.5 -110t39.5 -142q0 -100 -51.5 -176.5
t-152 -120.5t-248.5 -44zM576 533q36 -4 62 11.5t38 43t8 61.5q-5 36 -37.5 65t-106.5 57l-81 31q-41 -3 -67.5 -18.5t-39.5 -39.5t-13 -52q0 -38 28 -63t118 -59z" />
    <glyph glyph-name="dieresis" unicode="&#xa8;" horiz-adv-x="840" 
d="M511 1182l3 264h316l-3 -264h-316zM10 1182l3 264h316l-3 -264h-316z" />
    <glyph glyph-name="copyright" unicode="&#xa9;" horiz-adv-x="1674" 
d="M828 -20q-154 0 -289 57.5t-237 159.5t-159.5 237t-57.5 290q0 153 57.5 287.5t159.5 236.5t237 160t289 58q153 0 287.5 -58t237 -160t160.5 -236.5t58 -287.5q0 -155 -58 -290t-160.5 -237t-237 -159.5t-287.5 -57.5zM833 313q-117 0 -208.5 52.5t-144 145t-52.5 214.5
q0 124 53 217t144.5 145.5t207.5 52.5q104 0 178.5 -42.5t119 -106t60.5 -127.5l-232 -18q-11 42 -35.5 82.5t-82.5 40.5q-65 0 -105 -57.5t-40 -182.5q0 -131 43.5 -188t116.5 -57q67 0 103.5 38.5t65.5 95.5l165 -37q-8 -34 -33 -79.5t-68 -88.5t-106 -71.5t-150 -28.5z
M828 161q120 0 220.5 39t173.5 113t112.5 178t39.5 233q0 128 -39.5 231.5t-112.5 178.5t-173.5 115t-220.5 40q-123 0 -223 -40t-172 -115t-111 -178.5t-39 -231.5q0 -129 39 -233t111 -178t172 -113t223 -39z" />
    <glyph glyph-name="ordfeminine" unicode="&#xaa;" horiz-adv-x="811" 
d="M288 795q-104 0 -158.5 51.5t-54.5 133.5q0 98 92.5 160.5t253.5 64.5l63 3v41q0 52 -30 67.5t-58 15.5q-36 0 -67.5 -16t-51.5 -63l-187 37q38 86 105.5 130.5t206.5 44.5q163 -1 225 -55t62 -149v-138v-119q0 -9 1 -37t2.5 -59t4.5 -47l13 -54h-211l-16 63
q-52 -37 -94.5 -56t-100.5 -19zM372 926q51 0 86 30q11 11 18.5 21t7.5 27v93l-53 -2q-65 -2 -105.5 -29t-40.5 -72q0 -30 23 -49t64 -19z" />
    <glyph glyph-name="guillemotleft" unicode="&#xab;" horiz-adv-x="1039" 
d="M729 123l-227 379l226 395h179l-145 -395l145 -379h-178zM336 123l-225 379l224 395h179l-146 -395l145 -379h-177z" />
    <glyph glyph-name="logicalnot" unicode="&#xac;" horiz-adv-x="1207" 
d="M113 605v245h981v-244zM820 297l-1 467h275v-467h-274z" />
    <glyph glyph-name="uni00AD" unicode="&#xad;" horiz-adv-x="800" 
d="M119 392v243l562 1v-244h-562z" />
    <glyph glyph-name="registered" unicode="&#xae;" horiz-adv-x="1118" 
d="M551 536q-130 0 -235.5 62t-168 167.5t-62.5 234.5t62.5 235t168 168.5t235.5 62.5q128 0 233.5 -62.5t168 -168.5t62.5 -235t-62.5 -234.5t-168 -167.5t-233.5 -62zM551 663q98 0 171 42t113.5 117.5t40.5 177.5t-40.5 178.5t-113.5 118.5t-171 42q-100 0 -173.5 -42
t-113 -118.5t-39.5 -178.5q0 -103 39.5 -178t113 -117t173.5 -42zM359 768v460h221q86 0 134 -32t48 -93q0 -46 -26.5 -77t-64.5 -47l91 -211h-139l-67 196h-69v-196h-128zM487 1051h89q24 0 39 12t15 33q0 22 -16.5 34t-43.5 12h-83v-91z" />
    <glyph glyph-name="macron" unicode="&#xaf;" horiz-adv-x="845" 
d="M38 1192v212h752v-212h-752z" />
    <glyph glyph-name="degree" unicode="&#xb0;" horiz-adv-x="958" 
d="M471 982q-100 0 -177.5 43.5t-122.5 121.5t-45 179q0 100 45 178.5t122.5 123t177.5 44.5q98 0 176 -44.5t123 -123t45 -178.5q0 -101 -45 -179t-123 -121.5t-176 -43.5zM469 1166q68 0 108.5 44.5t40.5 113.5q0 68 -40.5 112t-110.5 44q-69 0 -110 -44t-40 -112
q2 -69 42 -113.5t110 -44.5z" />
    <glyph glyph-name="plusminus" unicode="&#xb1;" horiz-adv-x="1207" 
d="M113 51v242l981 1v-243h-981zM727 1028h367v-244h-367v-368h-244l-1 368h-369v244h369v369h245v-369z" />
    <glyph glyph-name="uni00B2" unicode="&#xb2;" horiz-adv-x="807" 
d="M56 748v100v50q0 81 34 136.5t88 94.5t114.5 68t114.5 55.5t88 58t34 74.5q0 48 -33 78.5t-90 30.5q-58 0 -103 -34.5t-58 -112.5h-204q0 91 40.5 164t122.5 116t207 43q161 0 252.5 -78t91.5 -204q0 -80 -33.5 -134t-85 -90t-110.5 -62t-111 -49t-85.5 -51.5
t-33.5 -70.5v-3h456v-180h-696z" />
    <glyph glyph-name="uni00B3" unicode="&#xb3;" horiz-adv-x="872" 
d="M420 736q-175 0 -267 81t-93 223h205q14 -74 57 -103t99 -29q77 0 119.5 31t42.5 79q0 46 -40 76t-110 33l-90 4v169l80 5q43 2 75 16t48.5 37t16.5 54q0 46 -42.5 70t-101.5 24q-40 0 -73 -12.5t-54 -41.5t-25 -81h-204q0 102 47.5 168t129.5 99t185 33q105 0 187.5 -26
t130.5 -80.5t48 -142.5q0 -67 -37 -117t-124 -79q69 -19 125 -70.5t56 -145.5q0 -92 -53.5 -153t-142.5 -91t-195 -30z" />
    <glyph glyph-name="acute" unicode="&#xb4;" horiz-adv-x="569" 
d="M10 1155l206 291h342l-307 -291h-241z" />
    <glyph glyph-name="uni00B5" unicode="&#xb5;" horiz-adv-x="1225" 
d="M101 -330v1390h349v-631q0 -36 19 -64t52 -43.5t76 -15.5q59 0 101.5 33.5t59.5 88.5v632h355l-7 -1060h-342v164q-35 -41 -73.5 -66t-83.5 -35q-38 -9 -78.5 -8t-78.5 14v-399h-349z" />
    <glyph glyph-name="paragraph" unicode="&#xb6;" horiz-adv-x="1234" 
d="M474 -166v765q-108 10 -200.5 59t-149 139t-56.5 224q0 118 54 214.5t159 153.5t256 57h596v-189h-126v-1423h-205v1423h-123v-1423h-205z" />
    <glyph glyph-name="periodcentered" unicode="&#xb7;" horiz-adv-x="545" 
d="M95 569v318h330v-318h-330z" />
    <glyph glyph-name="cedilla" unicode="&#xb8;" horiz-adv-x="584" 
d="M281 -432q-66 0 -129.5 12t-118.5 44l44 109q33 -19 76 -35t86 -16q44 0 70 15t26 42q0 38 -38.5 58t-135.5 21q-14 0 -19 3.5t1 17.5l74 171h143l-43 -116q79 0 125.5 -25t67 -61.5t20.5 -72.5q0 -52 -34.5 -89t-91.5 -57.5t-123 -20.5z" />
    <glyph glyph-name="uni00B9" unicode="&#xb9;" horiz-adv-x="528" 
d="M197 744v661h-156v117q114 0 169 36t63 96h142v-910h-218z" />
    <glyph glyph-name="ordmasculine" unicode="&#xba;" horiz-adv-x="804" 
d="M401 796q-99 0 -174.5 42.5t-117 117.5t-41.5 172q0 101 43.5 177t119 118.5t170.5 42.5q101 0 176 -43.5t117 -120t42 -174.5q0 -97 -42 -172t-117.5 -117.5t-175.5 -42.5zM401 937q59 0 87 48t28 147t-28 147t-87 48q-57 0 -85 -48t-28 -147t28 -147t85 -48z" />
    <glyph glyph-name="guillemotright" unicode="&#xbb;" horiz-adv-x="1051" 
d="M513 123l147 379l-147 395h180l224 -395l-225 -379h-179zM121 123l145 379l-145 395h179l224 -395l-226 -379h-177z" />
    <glyph glyph-name="onequarter" unicode="&#xbc;" horiz-adv-x="1697" 
d="M197 536v661h-156v117q114 0 169 36t63 96h142v-910h-218zM427 -8l-194 3l975 1467h191zM1314 3l1 187h-413v171l408 551h211v-545h136v-177h-136v-187h-207zM1099 367h217v290z" />
    <glyph glyph-name="onehalf" unicode="&#xbd;" horiz-adv-x="1834" 
d="M197 536v661h-156v117q114 0 169 36t63 96h142v-910h-218zM427 -8l-194 3l975 1467h191zM1083 0v100v50q0 81 34 136.5t88 94.5t114.5 68t114.5 55.5t88 58t34 74.5q0 48 -33 78.5t-90 30.5q-58 0 -103 -34.5t-58 -112.5h-204q0 91 40.5 164t122.5 116t207 43
q161 0 252.5 -78t91.5 -204q0 -80 -33.5 -134t-85 -90t-110.5 -62t-111 -49t-85.5 -51.5t-33.5 -70.5v-3h456v-180h-696z" />
    <glyph glyph-name="threequarters" unicode="&#xbe;" horiz-adv-x="1956" 
d="M420 526q-175 0 -267 81t-93 223h205q14 -74 57 -103t99 -29q77 0 119.5 31t42.5 79q0 46 -40 76t-110 33l-90 4v169l80 5q43 2 75 16t48.5 37t16.5 54q0 46 -42.5 70t-101.5 24q-40 0 -73 -12.5t-54 -41.5t-25 -81h-204q0 102 47.5 168t129.5 99t185 33q105 0 187.5 -26
t130.5 -80.5t48 -142.5q0 -67 -37 -117t-124 -79q69 -19 125 -70.5t56 -145.5q0 -92 -53.5 -153t-142.5 -91t-195 -30zM686 -8l-194 3l975 1467h191zM1573 3l1 187h-413v171l408 551h211v-545h136v-177h-136v-187h-207zM1358 367h217v290z" />
    <glyph glyph-name="questiondown" unicode="&#xbf;" horiz-adv-x="1111" 
d="M558 -342q-164 0 -273 46.5t-163 123.5t-54 169q0 81 27.5 137t70.5 98t91.5 76t91.5 69.5t70.5 79.5t27.5 104h271q0 -78 -23 -137t-58.5 -104.5t-76 -82t-76.5 -70.5t-58.5 -70.5t-22.5 -80.5q0 -54 46 -88t112 -34q49 0 95 21.5t82.5 61t58.5 93.5l286 -64
q-64 -168 -198 -258t-327 -90zM401 686v348h365v-348h-365z" />
    <glyph glyph-name="Agrave" unicode="&#xc0;" horiz-adv-x="1467" 
d="M43 0l514 1446h353l515 -1446h-338l-107 308h-488l-109 -308h-340zM566 601h335l-167 518zM608 1567l-307 291h342l206 -291h-241z" />
    <glyph glyph-name="Aacute" unicode="&#xc1;" horiz-adv-x="1467" 
d="M43 0l514 1446h353l515 -1446h-338l-107 308h-488l-109 -308h-340zM566 601h335l-167 518zM612 1567l206 291h342l-307 -291h-241z" />
    <glyph glyph-name="Acircumflex" unicode="&#xc2;" horiz-adv-x="1467" 
d="M43 0l514 1446h353l515 -1446h-338l-107 308h-488l-109 -308h-340zM566 601h335l-167 518zM347 1567l270 275h232l263 -275h-253l-128 144l-144 -144h-240z" />
    <glyph glyph-name="Atilde" unicode="&#xc3;" horiz-adv-x="1467" 
d="M43 0l514 1446h353l515 -1446h-338l-107 308h-488l-109 -308h-340zM566 601h335l-167 518zM425 1590l-50 172q38 41 85 70.5t120 29.5q59 0 112 -16t102.5 -32.5t94.5 -16.5q56 0 101 25.5t77 50.5l38 -197q-33 -28 -89 -51.5t-125 -23.5q-57 0 -105.5 14.5t-95.5 28.5
t-101 14q-50 0 -85.5 -15.5t-78.5 -52.5z" />
    <glyph glyph-name="Adieresis" unicode="&#xc4;" horiz-adv-x="1467" 
d="M43 0l514 1446h353l515 -1446h-338l-107 308h-488l-109 -308h-340zM566 601h335l-167 518zM825 1594l3 264h316l-3 -264h-316zM324 1594l3 264h316l-3 -264h-316z" />
    <glyph glyph-name="Aring" unicode="&#xc5;" horiz-adv-x="1467" 
d="M43 0l514 1446h353l515 -1446h-338l-107 308h-488l-109 -308h-340zM566 601h335l-167 518zM735 1539q-94 0 -158.5 66t-64.5 161q0 89 65.5 152t157.5 63q62 0 112.5 -29.5t80.5 -79.5t30 -110q0 -94 -65 -158.5t-158 -64.5zM733 1661q40 0 67.5 30t27.5 69
q0 41 -27.5 68t-67.5 27t-69.5 -27t-29.5 -68q0 -39 29.5 -69t69.5 -30z" />
    <glyph glyph-name="AE" unicode="&#xc6;" horiz-adv-x="2140" 
d="M0 0l762 1446h1262l-2 -280h-682v-300h581v-277h-581v-307h703v-282h-1092v309h-452l-158 -309h-341zM624 601h327v627z" />
    <glyph glyph-name="Ccedilla" unicode="&#xc7;" horiz-adv-x="1463" 
d="M765 -432q-66 0 -129.5 12t-118.5 44l44 109q34 -19 76.5 -35t86.5 -16t69.5 15t25.5 42q0 38 -38 58t-135 21q-14 0 -19.5 3.5t1.5 17.5l73 171h144l-43 -116q78 0 125 -25t67.5 -61.5t20.5 -72.5q0 -52 -35 -89t-91.5 -57.5t-123.5 -20.5zM764 -20q-206 0 -357 96.5
t-234 267.5t-83 395q0 223 82 386t233.5 252t358.5 89q168 0 299.5 -66.5t212.5 -183t97 -265.5h-357q-12 72 -45.5 125.5t-88 83.5t-129.5 30q-87 0 -152 -43.5t-100.5 -144t-35.5 -268.5q0 -256 78.5 -367t209.5 -111q75 0 129.5 36t88 96.5t45.5 131.5h357
q-14 -107 -50.5 -204.5t-105.5 -173.5t-179.5 -119t-273.5 -43z" />
    <glyph glyph-name="Egrave" unicode="&#xc8;" horiz-adv-x="1282" 
d="M148 0v1446h1031l-2 -284h-686v-295h585v-278h-587v-302l696 -1v-286h-1037zM538 1567l-307 291h342l206 -291h-241z" />
    <glyph glyph-name="Eacute" unicode="&#xc9;" horiz-adv-x="1282" 
d="M148 0v1446h1031l-2 -284h-686v-295h585v-278h-587v-302l696 -1v-286h-1037zM542 1567l206 291h342l-307 -291h-241z" />
    <glyph glyph-name="Ecircumflex" unicode="&#xca;" horiz-adv-x="1282" 
d="M148 0v1446h1031l-2 -284h-686v-295h585v-278h-587v-302l696 -1v-286h-1037zM279 1567l270 275h232l263 -275h-253l-128 144l-144 -144h-240z" />
    <glyph glyph-name="Edieresis" unicode="&#xcb;" horiz-adv-x="1282" 
d="M148 0v1446h1031l-2 -284h-686v-295h585v-278h-587v-302l696 -1v-286h-1037zM755 1594l3 264h316l-3 -264h-316zM254 1594l3 264h316l-3 -264h-316z" />
    <glyph glyph-name="Igrave" unicode="&#xcc;" horiz-adv-x="637" 
d="M148 0v1446h341v-1446h-341zM193 1567l-307 291h342l206 -291h-241z" />
    <glyph glyph-name="Iacute" unicode="&#xcd;" horiz-adv-x="637" 
d="M148 0v1446h341v-1446h-341zM198 1567l206 291h342l-307 -291h-241z" />
    <glyph glyph-name="Icircumflex" unicode="&#xce;" horiz-adv-x="637" 
d="M148 0v1446h341v-1446h-341zM-66 1567l270 275h232l263 -275h-253l-128 144l-144 -144h-240z" />
    <glyph glyph-name="Idieresis" unicode="&#xcf;" horiz-adv-x="637" 
d="M148 0v1446h341v-1446h-341zM411 1594l3 264h316l-3 -264h-316zM-90 1594l3 264h316l-3 -264h-316z" />
    <glyph glyph-name="Eth" unicode="&#xd0;" horiz-adv-x="1536" 
d="M70 594v244h765v-244h-765zM220 0v1446h71t134 0.5t151 0t120 -2.5q263 -8 428.5 -98.5t243 -248t77.5 -368.5q0 -218 -81.5 -382t-248.5 -255.5t-425 -91.5h-470zM562 271h138q99 0 188 45t145.5 146t56.5 271q0 151 -48 249t-135 145.5t-206 47.5h-139v-904z" />
    <glyph glyph-name="Ntilde" unicode="&#xd1;" horiz-adv-x="1590" 
d="M148 0v1446h341l612 -882v882h340v-1446h-307l-645 928v-928h-341zM485 1590l-50 172q38 41 85 70.5t120 29.5q59 0 112 -16t102.5 -32.5t94.5 -16.5q56 0 101 25.5t77 50.5l38 -197q-33 -28 -89 -51.5t-125 -23.5q-57 0 -105.5 14.5t-95.5 28.5t-101 14
q-50 0 -85.5 -15.5t-78.5 -52.5z" />
    <glyph glyph-name="Ograve" unicode="&#xd2;" horiz-adv-x="1546" 
d="M775 -20q-210 0 -363.5 90.5t-237.5 256.5t-84 393q0 229 85 396t239.5 258.5t360.5 91.5t358.5 -91.5t237 -258.5t84.5 -396q0 -227 -83 -393t-236 -256.5t-361 -90.5zM775 256q93 0 163 45.5t108.5 146.5t38.5 267q0 171 -39 275.5t-109 152t-162 47.5q-93 0 -163 -48
t-109.5 -152.5t-39.5 -274.5q0 -166 39.5 -267t109.5 -146.5t163 -45.5zM647 1567l-307 291h342l206 -291h-241z" />
    <glyph glyph-name="Oacute" unicode="&#xd3;" horiz-adv-x="1546" 
d="M775 -20q-210 0 -363.5 90.5t-237.5 256.5t-84 393q0 229 85 396t239.5 258.5t360.5 91.5t358.5 -91.5t237 -258.5t84.5 -396q0 -227 -83 -393t-236 -256.5t-361 -90.5zM775 256q93 0 163 45.5t108.5 146.5t38.5 267q0 171 -39 275.5t-109 152t-162 47.5q-93 0 -163 -48
t-109.5 -152.5t-39.5 -274.5q0 -166 39.5 -267t109.5 -146.5t163 -45.5zM651 1567l206 291h342l-307 -291h-241z" />
    <glyph glyph-name="Ocircumflex" unicode="&#xd4;" horiz-adv-x="1546" 
d="M775 -20q-210 0 -363.5 90.5t-237.5 256.5t-84 393q0 229 85 396t239.5 258.5t360.5 91.5t358.5 -91.5t237 -258.5t84.5 -396q0 -227 -83 -393t-236 -256.5t-361 -90.5zM775 256q93 0 163 45.5t108.5 146.5t38.5 267q0 171 -39 275.5t-109 152t-162 47.5q-93 0 -163 -48
t-109.5 -152.5t-39.5 -274.5q0 -166 39.5 -267t109.5 -146.5t163 -45.5zM388 1567l270 275h232l263 -275h-253l-128 144l-144 -144h-240z" />
    <glyph glyph-name="Otilde" unicode="&#xd5;" horiz-adv-x="1546" 
d="M775 -20q-210 0 -363.5 90.5t-237.5 256.5t-84 393q0 229 85 396t239.5 258.5t360.5 91.5t358.5 -91.5t237 -258.5t84.5 -396q0 -227 -83 -393t-236 -256.5t-361 -90.5zM775 256q93 0 163 45.5t108.5 146.5t38.5 267q0 171 -39 275.5t-109 152t-162 47.5q-93 0 -163 -48
t-109.5 -152.5t-39.5 -274.5q0 -166 39.5 -267t109.5 -146.5t163 -45.5zM464 1590l-50 172q38 41 85 70.5t120 29.5q59 0 112 -16t102.5 -32.5t94.5 -16.5q56 0 101 25.5t77 50.5l38 -197q-33 -28 -89 -51.5t-125 -23.5q-57 0 -105.5 14.5t-95.5 28.5t-101 14
q-50 0 -85.5 -15.5t-78.5 -52.5z" />
    <glyph glyph-name="Odieresis" unicode="&#xd6;" horiz-adv-x="1546" 
d="M775 -20q-210 0 -363.5 90.5t-237.5 256.5t-84 393q0 229 85 396t239.5 258.5t360.5 91.5t358.5 -91.5t237 -258.5t84.5 -396q0 -227 -83 -393t-236 -256.5t-361 -90.5zM775 256q93 0 163 45.5t108.5 146.5t38.5 267q0 171 -39 275.5t-109 152t-162 47.5q-93 0 -163 -48
t-109.5 -152.5t-39.5 -274.5q0 -166 39.5 -267t109.5 -146.5t163 -45.5zM865 1594l3 264h316l-3 -264h-316zM364 1594l3 264h316l-3 -264h-316z" />
    <glyph glyph-name="multiply" unicode="&#xd7;" horiz-adv-x="1187" 
d="M286 249l-171 174l784 785l174 -173zM896 249l-783 785l171 173l786 -784z" />
    <glyph glyph-name="Oslash" unicode="&#xd8;" horiz-adv-x="1575" 
d="M179 -28l-143 147l166 165q-51 87 -78.5 196.5t-27.5 238.5q0 229 84.5 396.5t238.5 259t361 91.5q137 0 249.5 -40t197.5 -116l164 162l139 -145l-174 -177q51 -86 78 -194.5t27 -235.5q0 -227 -83.5 -393t-236.5 -256.5t-361 -90.5q-135 0 -247 38.5t-197 109.5z
M780 250q111 0 173.5 68.5t81.5 217.5q10 67 11.5 143t-4.5 164l-474 -487q66 -106 212 -106zM514 589l478 489q-33 64 -85.5 93t-126.5 29q-116 0 -181 -80t-83 -253q-7 -64 -7.5 -133t5.5 -145z" />
    <glyph glyph-name="Ugrave" unicode="&#xd9;" horiz-adv-x="1470" 
d="M749 -20q-222 0 -353.5 74t-189.5 208.5t-58 316.5v867h346v-886q0 -156 74 -224.5t181 -68.5q72 0 130.5 30t92.5 94.5t34 168.5v886h345v-871q0 -180 -58 -313.5t-190 -207.5t-354 -74zM623 1567l-307 291h342l206 -291h-241z" />
    <glyph glyph-name="Uacute" unicode="&#xda;" horiz-adv-x="1470" 
d="M749 -20q-222 0 -353.5 74t-189.5 208.5t-58 316.5v867h346v-886q0 -156 74 -224.5t181 -68.5q72 0 130.5 30t92.5 94.5t34 168.5v886h345v-871q0 -180 -58 -313.5t-190 -207.5t-354 -74zM628 1567l206 291h342l-307 -291h-241z" />
    <glyph glyph-name="Ucircumflex" unicode="&#xdb;" horiz-adv-x="1470" 
d="M749 -20q-222 0 -353.5 74t-189.5 208.5t-58 316.5v867h346v-886q0 -156 74 -224.5t181 -68.5q72 0 130.5 30t92.5 94.5t34 168.5v886h345v-871q0 -180 -58 -313.5t-190 -207.5t-354 -74zM364 1567l270 275h232l263 -275h-253l-128 144l-144 -144h-240z" />
    <glyph glyph-name="Udieresis" unicode="&#xdc;" horiz-adv-x="1470" 
d="M749 -20q-222 0 -353.5 74t-189.5 208.5t-58 316.5v867h346v-886q0 -156 74 -224.5t181 -68.5q72 0 130.5 30t92.5 94.5t34 168.5v886h345v-871q0 -180 -58 -313.5t-190 -207.5t-354 -74zM841 1594l3 264h316l-3 -264h-316zM340 1594l3 264h316l-3 -264h-316z" />
    <glyph glyph-name="Yacute" unicode="&#xdd;" horiz-adv-x="1389" 
d="M522 0v605l-505 841h368l310 -550l305 550h372l-509 -841v-605h-341zM614 1568l206 291h342l-307 -291h-241z" />
    <glyph glyph-name="Thorn" unicode="&#xde;" horiz-adv-x="1389" 
d="M148 0v1446h342v-269h279q163 0 289.5 -49t198.5 -148t72 -248q0 -142 -72 -241t-198 -151t-288 -52h-281v-288h-342zM490 564h266q66 0 115 16.5t76 53.5t27 100q0 61 -27 97.5t-76.5 53.5t-117.5 17h-263v-338z" />
    <glyph glyph-name="germandbls" unicode="&#xdf;" horiz-adv-x="1289" 
d="M781 -20q-86 0 -152 18.5t-113 46.5l96 206q29 -18 66.5 -37.5t92.5 -19.5q60 0 101.5 28t41.5 85q0 38 -20 62t-58.5 43t-93.5 41q-59 26 -108 63t-78.5 88.5t-29.5 122.5q0 76 34.5 128t82.5 93q30 28 58.5 54t47 54.5t18.5 64.5q0 46 -35.5 77.5t-105.5 31.5
q-85 0 -131.5 -52t-46.5 -134v-1044h-333l-2 978q2 90 30.5 173.5t89.5 150t161 105.5t246 39q139 0 235.5 -36t147 -104t50.5 -165q0 -70 -28.5 -122.5t-88 -94t-152.5 -80.5q-17 -8 -25.5 -16t-8.5 -18q0 -11 8.5 -18t27.5 -14q76 -34 149.5 -70t132.5 -84t94 -115.5
t35 -165.5q0 -118 -54 -199t-152 -122.5t-230 -41.5z" />
    <glyph glyph-name="agrave" unicode="&#xe0;" horiz-adv-x="1145" 
d="M428 -20q-98 0 -178.5 37.5t-127.5 109.5t-47 176q0 169 130 260t408 92l105 1v53q0 61 -34.5 91.5t-107.5 29.5q-52 -1 -105 -24.5t-75 -86.5h-279q6 117 69 191t168.5 109t236.5 35q170 0 269 -40.5t141.5 -113t42.5 -170.5v-730h-283l-29 171q-49 -109 -123 -150
t-181 -41zM545 199q34 0 65 12t55 33.5t38 47.5t15 56v141l-84 -1q-52 0 -107.5 -14t-93.5 -46.5t-38 -89.5q0 -65 45 -102t105 -37zM469 1155l-307 291h342l206 -291h-241z" />
    <glyph glyph-name="aacute" unicode="&#xe1;" horiz-adv-x="1145" 
d="M428 -20q-98 0 -178.5 37.5t-127.5 109.5t-47 176q0 169 130 260t408 92l105 1v53q0 61 -34.5 91.5t-107.5 29.5q-52 -1 -105 -24.5t-75 -86.5h-279q6 117 69 191t168.5 109t236.5 35q170 0 269 -40.5t141.5 -113t42.5 -170.5v-730h-283l-29 171q-49 -109 -123 -150
t-181 -41zM545 199q34 0 65 12t55 33.5t38 47.5t15 56v141l-84 -1q-52 0 -107.5 -14t-93.5 -46.5t-38 -89.5q0 -65 45 -102t105 -37zM473 1155l206 291h342l-307 -291h-241z" />
    <glyph glyph-name="acircumflex" unicode="&#xe2;" horiz-adv-x="1145" 
d="M428 -20q-98 0 -178.5 37.5t-127.5 109.5t-47 176q0 169 130 260t408 92l105 1v53q0 61 -34.5 91.5t-107.5 29.5q-52 -1 -105 -24.5t-75 -86.5h-279q6 117 69 191t168.5 109t236.5 35q170 0 269 -40.5t141.5 -113t42.5 -170.5v-730h-283l-29 171q-49 -109 -123 -150
t-181 -41zM545 199q34 0 65 12t55 33.5t38 47.5t15 56v141l-84 -1q-52 0 -107.5 -14t-93.5 -46.5t-38 -89.5q0 -65 45 -102t105 -37zM210 1155l270 275h232l263 -275h-253l-128 144l-144 -144h-240z" />
    <glyph glyph-name="atilde" unicode="&#xe3;" horiz-adv-x="1145" 
d="M428 -20q-98 0 -178.5 37.5t-127.5 109.5t-47 176q0 169 130 260t408 92l105 1v53q0 61 -34.5 91.5t-107.5 29.5q-52 -1 -105 -24.5t-75 -86.5h-279q6 117 69 191t168.5 109t236.5 35q170 0 269 -40.5t141.5 -113t42.5 -170.5v-730h-283l-29 171q-49 -109 -123 -150
t-181 -41zM545 199q34 0 65 12t55 33.5t38 47.5t15 56v141l-84 -1q-52 0 -107.5 -14t-93.5 -46.5t-38 -89.5q0 -65 45 -102t105 -37zM286 1178l-50 172q38 41 85 70.5t120 29.5q59 0 112 -16t102.5 -32.5t94.5 -16.5q56 0 101 25.5t77 50.5l38 -197q-33 -28 -89 -51.5
t-125 -23.5q-57 0 -105.5 14.5t-95.5 28.5t-101 14q-50 0 -85.5 -15.5t-78.5 -52.5z" />
    <glyph glyph-name="adieresis" unicode="&#xe4;" horiz-adv-x="1145" 
d="M428 -20q-98 0 -178.5 37.5t-127.5 109.5t-47 176q0 169 130 260t408 92l105 1v53q0 61 -34.5 91.5t-107.5 29.5q-52 -1 -105 -24.5t-75 -86.5h-279q6 117 69 191t168.5 109t236.5 35q170 0 269 -40.5t141.5 -113t42.5 -170.5v-730h-283l-29 171q-49 -109 -123 -150
t-181 -41zM545 199q34 0 65 12t55 33.5t38 47.5t15 56v141l-84 -1q-52 0 -107.5 -14t-93.5 -46.5t-38 -89.5q0 -65 45 -102t105 -37zM686 1182l3 264h316l-3 -264h-316zM185 1182l3 264h316l-3 -264h-316z" />
    <glyph glyph-name="aring" unicode="&#xe5;" horiz-adv-x="1145" 
d="M428 -20q-98 0 -178.5 37.5t-127.5 109.5t-47 176q0 169 130 260t408 92l105 1v53q0 61 -34.5 91.5t-107.5 29.5q-52 -1 -105 -24.5t-75 -86.5h-279q6 117 69 191t168.5 109t236.5 35q170 0 269 -40.5t141.5 -113t42.5 -170.5v-730h-283l-29 171q-49 -109 -123 -150
t-181 -41zM545 199q34 0 65 12t55 33.5t38 47.5t15 56v141l-84 -1q-52 0 -107.5 -14t-93.5 -46.5t-38 -89.5q0 -65 45 -102t105 -37zM595 1127q-94 0 -158.5 66t-64.5 161q0 89 65.5 152t157.5 63q62 0 112.5 -29.5t80.5 -79.5t30 -110q0 -94 -65 -158.5t-158 -64.5z
M593 1249q40 0 67.5 30t27.5 69q0 41 -27.5 68t-67.5 27t-69.5 -27t-29.5 -68q0 -39 29.5 -69t69.5 -30z" />
    <glyph glyph-name="ae" unicode="&#xe6;" horiz-adv-x="1826" 
d="M428 -20q-98 0 -178.5 37.5t-127.5 109.5t-47 176q0 169 130.5 260t408.5 92l105 1v53q0 62 -36.5 92t-106.5 29q-52 -1 -105 -25t-75 -86h-279q5 115 68.5 189t169 110t236.5 36q129 0 217.5 -27.5t139.5 -75.5q59 49 136 76t170 27q163 0 273 -68.5t166 -188t56 -273.5
v-85h-674q0 -71 23 -119.5t65 -73.5t98 -25q64 0 113 26.5t72 92.5h304q-17 -113 -89.5 -193.5t-176 -123.5t-215.5 -43q-142 0 -253.5 54.5t-179.5 152.5q-27 -65 -80 -112t-134 -71t-194 -24zM545 199q50 0 88.5 23t61 58.5t23.5 74.5v134l-84 -1q-51 0 -106.5 -14
t-94 -46.5t-38.5 -89.5q0 -65 45 -102t105 -37zM1074 635h359q0 51 -20.5 93.5t-60 67.5t-99.5 25q-53 0 -93.5 -26.5t-63 -69t-22.5 -90.5z" />
    <glyph glyph-name="ccedilla" unicode="&#xe7;" horiz-adv-x="1098" 
d="M577 -432q-66 0 -129.5 12t-118.5 44l44 109q34 -19 76.5 -35t85.5 -16q45 0 70.5 15t25.5 42q0 38 -38 58t-136 21q-13 0 -18.5 3.5t0.5 17.5l74 171h144l-44 -116q79 0 125.5 -25t67.5 -61.5t21 -72.5q0 -52 -35 -89t-92 -57.5t-123 -20.5zM578 -20q-146 0 -261.5 65.5
t-182 185.5t-66.5 281t65 282.5t180 190.5t265 69q138 0 235.5 -57.5t151 -153t58.5 -208.5h-279q-5 35 -23 73t-51.5 64.5t-88.5 26.5q-89 0 -143.5 -70.5t-54.5 -212.5q0 -140 55.5 -219t148.5 -79q54 0 88 29t51 67t21 67h272q-3 -109 -57.5 -200t-152 -146t-231.5 -55z
" />
    <glyph glyph-name="egrave" unicode="&#xe8;" 
d="M604 -20q-157 0 -276.5 65t-186 183t-66.5 277q0 151 60.5 275.5t175.5 199t277 74.5q164 0 274 -68.5t165.5 -188t55.5 -273.5v-85h-673q-1 -71 22 -119.5t65 -73.5t98 -25q64 0 113.5 26.5t72.5 92.5h304q-17 -113 -89.5 -193.5t-176.5 -123.5t-215 -43zM409 635h358
q0 51 -20 93.5t-59.5 67.5t-99.5 25q-53 0 -93.5 -26.5t-63 -69t-22.5 -90.5zM463 1155l-307 291h342l206 -291h-241z" />
    <glyph glyph-name="eacute" unicode="&#xe9;" 
d="M604 -20q-157 0 -276.5 65t-186 183t-66.5 277q0 151 60.5 275.5t175.5 199t277 74.5q164 0 274 -68.5t165.5 -188t55.5 -273.5v-85h-673q-1 -71 22 -119.5t65 -73.5t98 -25q64 0 113.5 26.5t72.5 92.5h304q-17 -113 -89.5 -193.5t-176.5 -123.5t-215 -43zM409 635h358
q0 51 -20 93.5t-59.5 67.5t-99.5 25q-53 0 -93.5 -26.5t-63 -69t-22.5 -90.5zM468 1155l206 291h342l-307 -291h-241z" />
    <glyph glyph-name="ecircumflex" unicode="&#xea;" 
d="M604 -20q-157 0 -276.5 65t-186 183t-66.5 277q0 151 60.5 275.5t175.5 199t277 74.5q164 0 274 -68.5t165.5 -188t55.5 -273.5v-85h-673q-1 -71 22 -119.5t65 -73.5t98 -25q64 0 113.5 26.5t72.5 92.5h304q-17 -113 -89.5 -193.5t-176.5 -123.5t-215 -43zM409 635h358
q0 51 -20 93.5t-59.5 67.5t-99.5 25q-53 0 -93.5 -26.5t-63 -69t-22.5 -90.5zM204 1155l270 275h232l263 -275h-253l-128 144l-144 -144h-240z" />
    <glyph glyph-name="edieresis" unicode="&#xeb;" 
d="M604 -20q-157 0 -276.5 65t-186 183t-66.5 277q0 151 60.5 275.5t175.5 199t277 74.5q164 0 274 -68.5t165.5 -188t55.5 -273.5v-85h-673q-1 -71 22 -119.5t65 -73.5t98 -25q64 0 113.5 26.5t72.5 92.5h304q-17 -113 -89.5 -193.5t-176.5 -123.5t-215 -43zM409 635h358
q0 51 -20 93.5t-59.5 67.5t-99.5 25q-53 0 -93.5 -26.5t-63 -69t-22.5 -90.5zM681 1182l3 264h316l-3 -264h-316zM180 1182l3 264h316l-3 -264h-316z" />
    <glyph glyph-name="igrave" unicode="&#xec;" horiz-adv-x="550" 
d="M113 0v1034h325v-1034h-325zM170 1155l-225 291h325l128 -288z" />
    <glyph glyph-name="iacute" unicode="&#xed;" horiz-adv-x="550" 
d="M113 0v1034h325v-1034h-325zM381 1155l-227 3l128 288h325z" />
    <glyph glyph-name="icircumflex" unicode="&#xee;" horiz-adv-x="550" 
d="M113 0v1034h325v-1034h-325zM-105 1155l270 275h232l263 -275h-253l-128 144l-144 -144h-240z" />
    <glyph glyph-name="idieresis" unicode="&#xef;" horiz-adv-x="843" 
d="M250 0v1034h325v-1034h-325zM512 1177l3 264h316l-3 -264h-316zM11 1177l3 264h316l-3 -264h-316z" />
    <glyph glyph-name="eth" unicode="&#xf0;" horiz-adv-x="1159" 
d="M573 -20q-149 0 -262.5 67.5t-178 184.5t-64.5 263q0 132 40 230.5t109 164t154.5 98t177.5 32.5q149 0 243.5 -80.5t109.5 -244.5l-205 157q-5 98 -44.5 190t-98 173.5t-121 149t-114.5 116.5h264q80 -54 169 -142.5t166 -206.5t125 -263.5t48 -313.5q0 -182 -61.5 -311
t-177.5 -196.5t-279 -67.5zM582 230q64 0 103 37t57.5 101t18.5 142q0 122 -43 197.5t-136 75.5q-95 0 -138.5 -77t-43.5 -196q0 -77 18.5 -141t58.5 -101.5t105 -37.5zM311 1088l-43 141l722 212l43 -141z" />
    <glyph glyph-name="ntilde" unicode="&#xf1;" horiz-adv-x="1200" 
d="M113 0v1034h336v-145q22 36 58.5 71t93 58t137.5 23q93 0 175.5 -36t134.5 -114.5t52 -205.5v-685h-342v640q0 68 -44 102.5t-101 34.5q-38 0 -75 -14.5t-61 -43t-24 -71.5v-648h-340zM299 1178l-50 172q38 41 85 70.5t120 29.5q59 0 112 -16t102.5 -32.5t94.5 -16.5
q56 0 101 25.5t77 50.5l38 -197q-33 -28 -89 -51.5t-125 -23.5q-57 0 -105.5 14.5t-95.5 28.5t-101 14q-50 0 -85.5 -15.5t-78.5 -52.5z" />
    <glyph glyph-name="ograve" unicode="&#xf2;" 
d="M580 -20q-156 0 -271 66.5t-178 186t-63 278.5q0 162 64.5 284.5t180 190.5t269.5 68q157 0 271.5 -68.5t177 -191t62.5 -283.5q0 -155 -62 -274.5t-177 -188t-274 -68.5zM582 230q69 0 108 43.5t55 111t16 137.5q0 69 -15 135t-54 108.5t-110 42.5t-110.5 -41.5
t-55.5 -107t-16 -137.5q0 -68 15 -135.5t54.5 -112t112.5 -44.5zM455 1155l-307 291h342l206 -291h-241z" />
    <glyph glyph-name="oacute" unicode="&#xf3;" 
d="M580 -20q-156 0 -271 66.5t-178 186t-63 278.5q0 162 64.5 284.5t180 190.5t269.5 68q157 0 271.5 -68.5t177 -191t62.5 -283.5q0 -155 -62 -274.5t-177 -188t-274 -68.5zM582 230q69 0 108 43.5t55 111t16 137.5q0 69 -15 135t-54 108.5t-110 42.5t-110.5 -41.5
t-55.5 -107t-16 -137.5q0 -68 15 -135.5t54.5 -112t112.5 -44.5zM459 1155l206 291h342l-307 -291h-241z" />
    <glyph glyph-name="ocircumflex" unicode="&#xf4;" 
d="M580 -20q-156 0 -271 66.5t-178 186t-63 278.5q0 162 64.5 284.5t180 190.5t269.5 68q157 0 271.5 -68.5t177 -191t62.5 -283.5q0 -155 -62 -274.5t-177 -188t-274 -68.5zM582 230q69 0 108 43.5t55 111t16 137.5q0 69 -15 135t-54 108.5t-110 42.5t-110.5 -41.5
t-55.5 -107t-16 -137.5q0 -68 15 -135.5t54.5 -112t112.5 -44.5zM196 1155l270 275h232l263 -275h-253l-128 144l-144 -144h-240z" />
    <glyph glyph-name="otilde" unicode="&#xf5;" 
d="M580 -20q-156 0 -271 66.5t-178 186t-63 278.5q0 162 64.5 284.5t180 190.5t269.5 68q157 0 271.5 -68.5t177 -191t62.5 -283.5q0 -155 -62 -274.5t-177 -188t-274 -68.5zM582 230q69 0 108 43.5t55 111t16 137.5q0 69 -15 135t-54 108.5t-110 42.5t-110.5 -41.5
t-55.5 -107t-16 -137.5q0 -68 15 -135.5t54.5 -112t112.5 -44.5zM272 1178l-50 172q38 41 85 70.5t120 29.5q59 0 112 -16t102.5 -32.5t94.5 -16.5q56 0 101 25.5t77 50.5l38 -197q-33 -28 -89 -51.5t-125 -23.5q-57 0 -105.5 14.5t-95.5 28.5t-101 14q-50 0 -85.5 -15.5
t-78.5 -52.5z" />
    <glyph glyph-name="odieresis" unicode="&#xf6;" 
d="M580 -20q-156 0 -271 66.5t-178 186t-63 278.5q0 162 64.5 284.5t180 190.5t269.5 68q157 0 271.5 -68.5t177 -191t62.5 -283.5q0 -155 -62 -274.5t-177 -188t-274 -68.5zM582 230q69 0 108 43.5t55 111t16 137.5q0 69 -15 135t-54 108.5t-110 42.5t-110.5 -41.5
t-55.5 -107t-16 -137.5q0 -68 15 -135.5t54.5 -112t112.5 -44.5zM672 1182l3 264h316l-3 -264h-316zM171 1182l3 264h316l-3 -264h-316z" />
    <glyph glyph-name="divide" unicode="&#xf7;" horiz-adv-x="1207" 
d="M113 605v245h981v-244zM437 153v324h337v-324h-337zM437 979v324h337v-324h-337z" />
    <glyph glyph-name="oslash" unicode="&#xf8;" horiz-adv-x="1247" 
d="M162 -16l-107 113l1015 951l104 -113zM643 -20q-156 0 -271 66.5t-178.5 186t-63.5 278.5q0 162 64.5 284.5t180.5 190.5t269 68q158 0 272.5 -68.5t176.5 -191t62 -283.5q0 -155 -61.5 -274.5t-176.5 -188t-274 -68.5zM644 230q70 0 109 43.5t55 111t16 137.5
q0 69 -15 135t-54 108.5t-111 42.5q-70 0 -109.5 -41.5t-56 -107t-16.5 -137.5q0 -68 15.5 -135.5t55 -112t111.5 -44.5z" />
    <glyph glyph-name="ugrave" unicode="&#xf9;" horiz-adv-x="1204" 
d="M493 -20q-67 0 -136 22t-127 64.5t-93.5 104t-35.5 141.5v722h341v-676q0 -58 40 -96.5t115 -38.5q72 0 114 37.5t42 99.5v674h338v-1034h-254l-40 209q-19 -97 -70 -146.5t-114.5 -66t-119.5 -16.5zM472 1155l-307 291h342l206 -291h-241z" />
    <glyph glyph-name="uacute" unicode="&#xfa;" horiz-adv-x="1204" 
d="M493 -20q-67 0 -136 22t-127 64.5t-93.5 104t-35.5 141.5v722h341v-676q0 -58 40 -96.5t115 -38.5q72 0 114 37.5t42 99.5v674h338v-1034h-254l-40 209q-19 -97 -70 -146.5t-114.5 -66t-119.5 -16.5zM477 1155l206 291h342l-307 -291h-241z" />
    <glyph glyph-name="ucircumflex" unicode="&#xfb;" horiz-adv-x="1204" 
d="M493 -20q-67 0 -136 22t-127 64.5t-93.5 104t-35.5 141.5v722h341v-676q0 -58 40 -96.5t115 -38.5q72 0 114 37.5t42 99.5v674h338v-1034h-254l-40 209q-19 -97 -70 -146.5t-114.5 -66t-119.5 -16.5zM213 1155l270 275h232l263 -275h-253l-128 144l-144 -144h-240z" />
    <glyph glyph-name="udieresis" unicode="&#xfc;" horiz-adv-x="1204" 
d="M493 -20q-67 0 -136 22t-127 64.5t-93.5 104t-35.5 141.5v722h341v-676q0 -58 40 -96.5t115 -38.5q72 0 114 37.5t42 99.5v674h338v-1034h-254l-40 209q-19 -97 -70 -146.5t-114.5 -66t-119.5 -16.5zM690 1182l3 264h316l-3 -264h-316zM189 1182l3 264h316l-3 -264h-316z
" />
    <glyph glyph-name="yacute" unicode="&#xfd;" horiz-adv-x="1152" 
d="M301 -330q-113 0 -161 20l-48 20v216l100 -5q72 -5 114 5t63 27.5t28.5 35t9.5 24.5l12 39l-402 982h336l222 -618l227 618h333l-411 -1007q-61 -147 -126 -224.5t-138.5 -105t-158.5 -27.5zM453 1155l206 291h342l-307 -291h-241z" />
    <glyph glyph-name="thorn" unicode="&#xfe;" horiz-adv-x="1222" 
d="M113 -322v1768h341v-537q37 40 80 73t98.5 52.5t129.5 19.5q111 0 199.5 -57t140.5 -175t52 -299q0 -193 -54 -312.5t-146.5 -175t-206.5 -55.5q-72 0 -134.5 22.5t-121.5 77.5q-23 20 -30.5 19t-7.5 -30v-391h-340zM616 191q60 0 103 31.5t66.5 106t23.5 202.5
q0 120 -23 188t-65.5 96t-101.5 28q-48 0 -85.5 -19t-59 -49.5t-21.5 -66.5v-428q32 -40 71.5 -64.5t91.5 -24.5z" />
    <glyph glyph-name="ydieresis" unicode="&#xff;" horiz-adv-x="1152" 
d="M301 -330q-113 0 -161 20l-48 20v216l100 -5q72 -5 114 5t63 27.5t28.5 35t9.5 24.5l12 39l-402 982h336l222 -618l227 618h333l-411 -1007q-61 -147 -126 -224.5t-138.5 -105t-158.5 -27.5zM666 1182l3 264h316l-3 -264h-316zM165 1182l3 264h316l-3 -264h-316z" />
    <glyph glyph-name="Amacron" unicode="&#x100;" horiz-adv-x="1467" 
d="M43 0l514 1446h353l515 -1446h-338l-107 308h-488l-109 -308h-340zM566 601h335l-167 518zM358 1604v212h752v-212h-752z" />
    <glyph glyph-name="amacron" unicode="&#x101;" horiz-adv-x="1145" 
d="M428 -20q-98 0 -178.5 37.5t-127.5 109.5t-47 176q0 169 130 260t408 92l105 1v53q0 61 -34.5 91.5t-107.5 29.5q-52 -1 -105 -24.5t-75 -86.5h-279q6 117 69 191t168.5 109t236.5 35q170 0 269 -40.5t141.5 -113t42.5 -170.5v-730h-283l-29 171q-49 -109 -123 -150
t-181 -41zM545 199q34 0 65 12t55 33.5t38 47.5t15 56v141l-84 -1q-52 0 -107.5 -14t-93.5 -46.5t-38 -89.5q0 -65 45 -102t105 -37zM219 1192v212h752v-212h-752z" />
    <glyph glyph-name="Abreve" unicode="&#x102;" horiz-adv-x="1467" 
d="M43 0l514 1446h353l515 -1446h-338l-107 308h-488l-109 -308h-340zM566 601h335l-167 518zM734 1567q-88 0 -166 30t-132.5 91t-73.5 151h208q14 -50 56.5 -82t107.5 -32t108 32t59 82h206q-18 -90 -73 -150.5t-132.5 -91t-167.5 -30.5z" />
    <glyph glyph-name="abreve" unicode="&#x103;" horiz-adv-x="1145" 
d="M428 -20q-98 0 -178.5 37.5t-127.5 109.5t-47 176q0 169 130 260t408 92l105 1v53q0 61 -34.5 91.5t-107.5 29.5q-52 -1 -105 -24.5t-75 -86.5h-279q6 117 69 191t168.5 109t236.5 35q170 0 269 -40.5t141.5 -113t42.5 -170.5v-730h-283l-29 171q-49 -109 -123 -150
t-181 -41zM545 199q34 0 65 12t55 33.5t38 47.5t15 56v141l-84 -1q-52 0 -107.5 -14t-93.5 -46.5t-38 -89.5q0 -65 45 -102t105 -37zM595 1155q-88 0 -166 30t-132.5 91t-73.5 151h208q14 -50 56.5 -82t107.5 -32t108 32t59 82h206q-18 -90 -73 -150.5t-132.5 -91
t-167.5 -30.5z" />
    <glyph glyph-name="Aogonek" unicode="&#x104;" horiz-adv-x="1467" 
d="M43 0l514 1446h353l515 -1446h-338l-107 308h-488l-109 -308h-340zM566 601h335l-167 518zM1229 -346q-104 0 -165.5 41.5t-61.5 125.5q0 52 36 98.5t152 86.5l234 -3q-107 -38 -144.5 -69t-37.5 -68q0 -30 15.5 -45t47.5 -15q45 0 79 14t66 33v-148q-28 -18 -89 -34.5
t-132 -16.5z" />
    <glyph glyph-name="aogonek" unicode="&#x105;" horiz-adv-x="1145" 
d="M428 -20q-98 0 -178.5 37.5t-127.5 109.5t-47 176q0 169 130 260t408 92l105 1v53q0 61 -34.5 91.5t-107.5 29.5q-52 -1 -105 -24.5t-75 -86.5h-279q6 117 69 191t168.5 109t236.5 35q170 0 269 -40.5t141.5 -113t42.5 -170.5v-730h-283l-29 171q-49 -109 -123 -150
t-181 -41zM545 199q34 0 65 12t55 33.5t38 47.5t15 56v141l-84 -1q-52 0 -107.5 -14t-93.5 -46.5t-38 -89.5q0 -65 45 -102t105 -37zM838 -337q-104 0 -165.5 41.5t-61.5 125.5q0 52 36 98.5t152 86.5l234 -3q-107 -38 -144.5 -69t-37.5 -68q0 -30 15.5 -45t47.5 -15
q45 0 79 14t66 33v-148q-28 -18 -89 -34.5t-132 -16.5z" />
    <glyph glyph-name="Cacute" unicode="&#x106;" horiz-adv-x="1463" 
d="M764 -20q-206 0 -357 96.5t-234 267.5t-83 395q0 223 82 386t233.5 252t358.5 89q168 0 299.5 -66.5t212.5 -183t97 -265.5h-357q-12 72 -45.5 125.5t-88 83.5t-129.5 30q-87 0 -152 -43.5t-100.5 -144t-35.5 -268.5q0 -256 78.5 -367t209.5 -111q75 0 129.5 36t88 96.5
t45.5 131.5h357q-14 -107 -50.5 -204.5t-105.5 -173.5t-179.5 -119t-273.5 -43zM641 1567l206 291h342l-307 -291h-241z" />
    <glyph glyph-name="cacute" unicode="&#x107;" horiz-adv-x="1098" 
d="M578 -20q-146 0 -261.5 65.5t-182 185.5t-66.5 281t65 282.5t180 190.5t265 69q138 0 235.5 -57.5t151 -153t58.5 -208.5h-279q-5 35 -23 73t-51.5 64.5t-88.5 26.5q-89 0 -143.5 -70.5t-54.5 -212.5q0 -140 55.5 -219t148.5 -79q54 0 88 29t51 67t21 67h272
q-3 -109 -57.5 -200t-152 -146t-231.5 -55zM454 1155l206 291h342l-307 -291h-241z" />
    <glyph glyph-name="Ccircumflex" unicode="&#x108;" horiz-adv-x="1463" 
d="M764 -20q-206 0 -357 96.5t-234 267.5t-83 395q0 223 82 386t233.5 252t358.5 89q168 0 299.5 -66.5t212.5 -183t97 -265.5h-357q-12 72 -45.5 125.5t-88 83.5t-129.5 30q-87 0 -152 -43.5t-100.5 -144t-35.5 -268.5q0 -256 78.5 -367t209.5 -111q75 0 129.5 36t88 96.5
t45.5 131.5h357q-14 -107 -50.5 -204.5t-105.5 -173.5t-179.5 -119t-273.5 -43zM377 1567l270 275h232l263 -275h-253l-128 144l-144 -144h-240z" />
    <glyph glyph-name="ccircumflex" unicode="&#x109;" horiz-adv-x="1098" 
d="M578 -20q-146 0 -261.5 65.5t-182 185.5t-66.5 281t65 282.5t180 190.5t265 69q138 0 235.5 -57.5t151 -153t58.5 -208.5h-279q-5 35 -23 73t-51.5 64.5t-88.5 26.5q-89 0 -143.5 -70.5t-54.5 -212.5q0 -140 55.5 -219t148.5 -79q54 0 88 29t51 67t21 67h272
q-3 -109 -57.5 -200t-152 -146t-231.5 -55zM190 1155l270 275h232l263 -275h-253l-128 144l-144 -144h-240z" />
    <glyph glyph-name="Cdotaccent" unicode="&#x10a;" horiz-adv-x="1463" 
d="M764 -20q-206 0 -357 96.5t-234 267.5t-83 395q0 223 82 386t233.5 252t358.5 89q168 0 299.5 -66.5t212.5 -183t97 -265.5h-357q-12 72 -45.5 125.5t-88 83.5t-129.5 30q-87 0 -152 -43.5t-100.5 -144t-35.5 -268.5q0 -256 78.5 -367t209.5 -111q75 0 129.5 36t88 96.5
t45.5 131.5h357q-14 -107 -50.5 -204.5t-105.5 -173.5t-179.5 -119t-273.5 -43zM602 1594v264h320v-264h-320z" />
    <glyph glyph-name="cdotaccent" unicode="&#x10b;" horiz-adv-x="1098" 
d="M578 -20q-146 0 -261.5 65.5t-182 185.5t-66.5 281t65 282.5t180 190.5t265 69q138 0 235.5 -57.5t151 -153t58.5 -208.5h-279q-5 35 -23 73t-51.5 64.5t-88.5 26.5q-89 0 -143.5 -70.5t-54.5 -212.5q0 -140 55.5 -219t148.5 -79q54 0 88 29t51 67t21 67h272
q-3 -109 -57.5 -200t-152 -146t-231.5 -55zM415 1182v264h320v-264h-320z" />
    <glyph glyph-name="Ccaron" unicode="&#x10c;" horiz-adv-x="1463" 
d="M764 -20q-206 0 -357 96.5t-234 267.5t-83 395q0 223 82 386t233.5 252t358.5 89q168 0 299.5 -66.5t212.5 -183t97 -265.5h-357q-12 72 -45.5 125.5t-88 83.5t-129.5 30q-87 0 -152 -43.5t-100.5 -144t-35.5 -268.5q0 -256 78.5 -367t209.5 -111q75 0 129.5 36t88 96.5
t45.5 131.5h357q-14 -107 -50.5 -204.5t-105.5 -173.5t-179.5 -119t-273.5 -43zM645 1567l-269 277h241l144 -157l128 157h253l-263 -277h-234z" />
    <glyph glyph-name="ccaron" unicode="&#x10d;" horiz-adv-x="1098" 
d="M578 -20q-146 0 -261.5 65.5t-182 185.5t-66.5 281t65 282.5t180 190.5t265 69q138 0 235.5 -57.5t151 -153t58.5 -208.5h-279q-5 35 -23 73t-51.5 64.5t-88.5 26.5q-89 0 -143.5 -70.5t-54.5 -212.5q0 -140 55.5 -219t148.5 -79q54 0 88 29t51 67t21 67h272
q-3 -109 -57.5 -200t-152 -146t-231.5 -55zM458 1155l-269 277h241l144 -157l128 157h253l-263 -277h-234z" />
    <glyph glyph-name="Dcaron" unicode="&#x10e;" horiz-adv-x="1464" 
d="M148 0v1446h71.5t134 0.5t150.5 0t121 -2.5q262 -8 427.5 -98.5t243 -248t77.5 -368.5q0 -218 -81.5 -382t-248.5 -255.5t-425 -91.5h-470zM490 271h138q99 0 188 45t145.5 146t56.5 271q0 151 -48 249t-135 145.5t-205 47.5h-140v-904zM611 1567l-269 277h241l144 -157
l128 157h253l-263 -277h-234z" />
    <glyph glyph-name="dcaron" unicode="&#x10f;" horiz-adv-x="1224" 
d="M510 -20q-211 0 -326.5 146t-115.5 397q0 163 47.5 282t138.5 184t221 65q47 0 91 -10t83.5 -28.5t71 -46t52.5 -64.5v581h342v-1486h-243l-40 212q-16 -48 -42.5 -90.5t-65 -74t-91.5 -49.5t-123 -18zM588 221q89 0 137 68t48 236q0 99 -21.5 162.5t-62 93.5t-100.5 30
q-81 0 -135.5 -64.5t-54.5 -221.5q0 -162 53 -233t136 -71zM1218 1028l84 210l-79 13v235h221v-247l-89 -211h-137z" />
    <glyph glyph-name="Dcroat" unicode="&#x110;" horiz-adv-x="1536" 
d="M70 594v244h765v-244h-765zM220 0v1446h71t134 0.5t151 0t120 -2.5q263 -8 428.5 -98.5t243 -248t77.5 -368.5q0 -218 -81.5 -382t-248.5 -255.5t-425 -91.5h-470zM562 271h138q99 0 188 45t145.5 146t56.5 271q0 151 -48 249t-135 145.5t-206 47.5h-139v-904z" />
    <glyph glyph-name="dcroat" unicode="&#x111;" horiz-adv-x="1298" 
d="M539 1146v186h699v-186h-699zM510 -20q-211 0 -326.5 146t-115.5 397q0 163 47.5 282t138.5 184t221 65q47 0 91 -10t83.5 -28.5t71 -46t52.5 -64.5v581h342v-1486h-243l-40 212q-16 -48 -42.5 -90.5t-65 -74t-91.5 -49.5t-123 -18zM588 221q89 0 137 68t48 236
q0 99 -21.5 162.5t-62 93.5t-100.5 30q-81 0 -135.5 -64.5t-54.5 -221.5q0 -162 53 -233t136 -71z" />
    <glyph glyph-name="Emacron" unicode="&#x112;" horiz-adv-x="1282" 
d="M148 0v1446h1031l-2 -284h-686v-295h585v-278h-587v-302l696 -1v-286h-1037zM288 1604v212h752v-212h-752z" />
    <glyph glyph-name="emacron" unicode="&#x113;" 
d="M604 -20q-157 0 -276.5 65t-186 183t-66.5 277q0 151 60.5 275.5t175.5 199t277 74.5q164 0 274 -68.5t165.5 -188t55.5 -273.5v-85h-673q-1 -71 22 -119.5t65 -73.5t98 -25q64 0 113.5 26.5t72.5 92.5h304q-17 -113 -89.5 -193.5t-176.5 -123.5t-215 -43zM409 635h358
q0 51 -20 93.5t-59.5 67.5t-99.5 25q-53 0 -93.5 -26.5t-63 -69t-22.5 -90.5zM214 1192v212h752v-212h-752z" />
    <glyph glyph-name="Ebreve" unicode="&#x114;" horiz-adv-x="1282" 
d="M148 0v1446h1031l-2 -284h-686v-295h585v-278h-587v-302l696 -1v-286h-1037zM664 1567q-88 0 -166 30t-132.5 91t-73.5 151h208q14 -50 56.5 -82t107.5 -32t108 32t59 82h206q-18 -90 -73 -150.5t-132.5 -91t-167.5 -30.5z" />
    <glyph glyph-name="ebreve" unicode="&#x115;" 
d="M604 -20q-157 0 -276.5 65t-186 183t-66.5 277q0 151 60.5 275.5t175.5 199t277 74.5q164 0 274 -68.5t165.5 -188t55.5 -273.5v-85h-673q-1 -71 22 -119.5t65 -73.5t98 -25q64 0 113.5 26.5t72.5 92.5h304q-17 -113 -89.5 -193.5t-176.5 -123.5t-215 -43zM409 635h358
q0 51 -20 93.5t-59.5 67.5t-99.5 25q-53 0 -93.5 -26.5t-63 -69t-22.5 -90.5zM589 1155q-88 0 -166 30t-132.5 91t-73.5 151h208q14 -50 56.5 -82t107.5 -32t108 32t59 82h206q-18 -90 -73 -150.5t-132.5 -91t-167.5 -30.5z" />
    <glyph glyph-name="Edotaccent" unicode="&#x116;" horiz-adv-x="1282" 
d="M148 0v1446h1031l-2 -284h-686v-295h585v-278h-587v-302l696 -1v-286h-1037zM503 1594v264h320v-264h-320z" />
    <glyph glyph-name="edotaccent" unicode="&#x117;" 
d="M604 -20q-157 0 -276.5 65t-186 183t-66.5 277q0 151 60.5 275.5t175.5 199t277 74.5q164 0 274 -68.5t165.5 -188t55.5 -273.5v-85h-673q-1 -71 22 -119.5t65 -73.5t98 -25q64 0 113.5 26.5t72.5 92.5h304q-17 -113 -89.5 -193.5t-176.5 -123.5t-215 -43zM409 635h358
q0 51 -20 93.5t-59.5 67.5t-99.5 25q-53 0 -93.5 -26.5t-63 -69t-22.5 -90.5zM429 1182v264h320v-264h-320z" />
    <glyph glyph-name="Eogonek" unicode="&#x118;" horiz-adv-x="1282" 
d="M148 0v1446h1031l-2 -284h-686v-295h585v-278h-587v-302l696 -1v-286h-1037zM1025 -339q-104 0 -165.5 41.5t-61.5 125.5q0 52 36 98.5t152 86.5l234 -3q-107 -38 -144.5 -69t-37.5 -68q0 -30 15.5 -45t47.5 -15q45 0 79 14t66 33v-148q-28 -18 -89 -34.5t-132 -16.5z
" />
    <glyph glyph-name="eogonek" unicode="&#x119;" 
d="M679 -311q-104 0 -165.5 42t-61.5 125q0 35 14.5 67.5t56.5 61.5q-135 17 -236 84.5t-156.5 179t-55.5 256.5q0 151 60.5 275.5t175.5 199t277 74.5q164 0 274 -68.5t165.5 -188t55.5 -273.5v-85h-673q-1 -71 22 -119.5t65 -73.5t98 -25q64 0 113.5 26.5t72.5 92.5h304
q-15 -103 -76 -176t-169 -131q-74 -40 -111.5 -69t-37.5 -63q0 -30 15.5 -45t47.5 -15q45 0 79 14t67 33v-148q-29 -18 -89.5 -34.5t-131.5 -16.5zM409 635h358q0 51 -20 93.5t-59.5 67.5t-99.5 25q-53 0 -93.5 -26.5t-63 -69t-22.5 -90.5z" />
    <glyph glyph-name="Ecaron" unicode="&#x11a;" horiz-adv-x="1282" 
d="M148 0v1446h1031l-2 -284h-686v-295h585v-278h-587v-302l696 -1v-286h-1037zM547 1567l-269 277h241l144 -157l128 157h253l-263 -277h-234z" />
    <glyph glyph-name="ecaron" unicode="&#x11b;" horiz-adv-x="1143" 
d="M604 -20q-157 0 -276.5 65t-186 183t-66.5 277q0 151 60.5 275.5t175.5 199t277 74.5q164 0 274 -68.5t165.5 -188t55.5 -273.5v-85h-673q-1 -71 22 -119.5t65 -73.5t98 -25q64 0 113.5 26.5t72.5 92.5h304q-17 -113 -89.5 -193.5t-176.5 -123.5t-215 -43zM409 635h358
q0 51 -20 93.5t-59.5 67.5t-99.5 25q-53 0 -93.5 -26.5t-63 -69t-22.5 -90.5zM459 1155l-269 277h241l144 -157l128 157h253l-263 -277h-234z" />
    <glyph glyph-name="Gcircumflex" unicode="&#x11c;" horiz-adv-x="1541" 
d="M758 -20q-202 0 -352.5 92t-233 258t-82.5 388q0 228 87 396t242 260t359 92q137 0 248.5 -42.5t192 -115.5t124.5 -165.5t47 -191.5h-357q-14 64 -47.5 116.5t-88 83.5t-127.5 31q-84 0 -154 -44t-112 -143.5t-42 -266.5q0 -138 28.5 -226t75.5 -137t104 -68.5
t114 -19.5q53 0 95.5 17t74 44t51.5 59t26 64l15 70h-276v232l634 -3v-760h-228v174q-36 -43 -88.5 -88t-131.5 -75.5t-198 -30.5zM382 1567l270 275h232l263 -275h-253l-128 144l-144 -144h-240z" />
    <glyph glyph-name="gcircumflex" unicode="&#x11d;" horiz-adv-x="1263" 
d="M611 -342q-291 0 -437.5 69.5t-146.5 176.5q0 52 28.5 86t66.5 54t70 29.5t39 12.5q-16 8 -48.5 26t-60.5 51t-28 86q0 59 55.5 108.5t169.5 66.5q-107 49 -161 134t-54 169q0 103 68.5 175.5t183.5 110t256 37.5q108 0 176 -22.5t126 -55.5q26 10 65 25.5t84.5 33t90 36
t82.5 33.5l-2 -251l-177 -26q8 -25 12.5 -52.5t4.5 -42.5q0 -88 -54.5 -168t-163 -130.5t-267.5 -50.5q-21 0 -59 1.5t-61 3.5q-37 -3 -51 -10.5t-14 -19.5q0 -23 45 -28.5t128 -11.5q30 -1 86.5 -4t124.5 -8q202 -14 298 -98t96 -205q0 -148 -142.5 -244.5t-428.5 -96.5z
M665 -158q112 0 153 24t41 66q0 40 -37 65t-106 29l-212 14q-50 3 -82.5 -11t-47.5 -37t-15 -48q0 -57 74.5 -79.5t231.5 -22.5zM600 563q69 0 111 42t42 111q0 70 -42 116t-111 46t-112 -46.5t-43 -115.5q0 -68 42 -110.5t113 -42.5zM227 1155l270 275h232l263 -275h-253
l-128 144l-144 -144h-240z" />
    <glyph glyph-name="Gbreve" unicode="&#x11e;" horiz-adv-x="1541" 
d="M758 -20q-202 0 -352.5 92t-233 258t-82.5 388q0 228 87 396t242 260t359 92q137 0 248.5 -42.5t192 -115.5t124.5 -165.5t47 -191.5h-357q-14 64 -47.5 116.5t-88 83.5t-127.5 31q-84 0 -154 -44t-112 -143.5t-42 -266.5q0 -138 28.5 -226t75.5 -137t104 -68.5
t114 -19.5q53 0 95.5 17t74 44t51.5 59t26 64l15 70h-276v232l634 -3v-760h-228v174q-36 -43 -88.5 -88t-131.5 -75.5t-198 -30.5zM767 1567q-88 0 -166 30t-132.5 91t-73.5 151h208q14 -50 56.5 -82t107.5 -32t108 32t59 82h206q-18 -90 -73 -150.5t-132.5 -91
t-167.5 -30.5z" />
    <glyph glyph-name="gbreve" unicode="&#x11f;" horiz-adv-x="1263" 
d="M611 -342q-291 0 -437.5 69.5t-146.5 176.5q0 52 28.5 86t66.5 54t70 29.5t39 12.5q-16 8 -48.5 26t-60.5 51t-28 86q0 59 55.5 108.5t169.5 66.5q-107 49 -161 134t-54 169q0 103 68.5 175.5t183.5 110t256 37.5q108 0 176 -22.5t126 -55.5q26 10 65 25.5t84.5 33t90 36
t82.5 33.5l-2 -251l-177 -26q8 -25 12.5 -52.5t4.5 -42.5q0 -88 -54.5 -168t-163 -130.5t-267.5 -50.5q-21 0 -59 1.5t-61 3.5q-37 -3 -51 -10.5t-14 -19.5q0 -23 45 -28.5t128 -11.5q30 -1 86.5 -4t124.5 -8q202 -14 298 -98t96 -205q0 -148 -142.5 -244.5t-428.5 -96.5z
M665 -158q112 0 153 24t41 66q0 40 -37 65t-106 29l-212 14q-50 3 -82.5 -11t-47.5 -37t-15 -48q0 -57 74.5 -79.5t231.5 -22.5zM600 563q69 0 111 42t42 111q0 70 -42 116t-111 46t-112 -46.5t-43 -115.5q0 -68 42 -110.5t113 -42.5zM612 1155q-88 0 -166 30t-132.5 91
t-73.5 151h208q14 -50 56.5 -82t107.5 -32t108 32t59 82h206q-18 -90 -73 -150.5t-132.5 -91t-167.5 -30.5z" />
    <glyph glyph-name="Gdotaccent" unicode="&#x120;" horiz-adv-x="1541" 
d="M758 -20q-202 0 -352.5 92t-233 258t-82.5 388q0 228 87 396t242 260t359 92q137 0 248.5 -42.5t192 -115.5t124.5 -165.5t47 -191.5h-357q-14 64 -47.5 116.5t-88 83.5t-127.5 31q-84 0 -154 -44t-112 -143.5t-42 -266.5q0 -138 28.5 -226t75.5 -137t104 -68.5
t114 -19.5q53 0 95.5 17t74 44t51.5 59t26 64l15 70h-276v232l634 -3v-760h-228v174q-36 -43 -88.5 -88t-131.5 -75.5t-198 -30.5zM607 1594v264h320v-264h-320z" />
    <glyph glyph-name="gdotaccent" unicode="&#x121;" horiz-adv-x="1263" 
d="M611 -342q-291 0 -437.5 69.5t-146.5 176.5q0 52 28.5 86t66.5 54t70 29.5t39 12.5q-16 8 -48.5 26t-60.5 51t-28 86q0 59 55.5 108.5t169.5 66.5q-107 49 -161 134t-54 169q0 103 68.5 175.5t183.5 110t256 37.5q108 0 176 -22.5t126 -55.5q26 10 65 25.5t84.5 33t90 36
t82.5 33.5l-2 -251l-177 -26q8 -25 12.5 -52.5t4.5 -42.5q0 -88 -54.5 -168t-163 -130.5t-267.5 -50.5q-21 0 -59 1.5t-61 3.5q-37 -3 -51 -10.5t-14 -19.5q0 -23 45 -28.5t128 -11.5q30 -1 86.5 -4t124.5 -8q202 -14 298 -98t96 -205q0 -148 -142.5 -244.5t-428.5 -96.5z
M665 -158q112 0 153 24t41 66q0 40 -37 65t-106 29l-212 14q-50 3 -82.5 -11t-47.5 -37t-15 -48q0 -57 74.5 -79.5t231.5 -22.5zM600 563q69 0 111 42t42 111q0 70 -42 116t-111 46t-112 -46.5t-43 -115.5q0 -68 42 -110.5t113 -42.5zM451 1182v264h320v-264h-320z" />
    <glyph glyph-name="uni0122" unicode="&#x122;" horiz-adv-x="1541" 
d="M758 -20q-202 0 -352.5 92t-233 258t-82.5 388q0 228 87 396t242 260t359 92q137 0 248.5 -42.5t192 -115.5t124.5 -165.5t47 -191.5h-357q-14 64 -47.5 116.5t-88 83.5t-127.5 31q-84 0 -154 -44t-112 -143.5t-42 -266.5q0 -138 28.5 -226t75.5 -137t104 -68.5
t114 -19.5q53 0 95.5 17t74 44t51.5 59t26 64l15 70h-276v232l634 -3v-760h-228v174q-36 -43 -88.5 -88t-131.5 -75.5t-198 -30.5zM614 -468l95 161l-88 12v203h276v-168l-168 -208h-115z" />
    <glyph glyph-name="uni0123" unicode="&#x123;" horiz-adv-x="1263" 
d="M611 -342q-291 0 -437.5 69.5t-146.5 176.5q0 52 28.5 86t66.5 54t70 29.5t39 12.5q-16 8 -48.5 26t-60.5 51t-28 86q0 59 55.5 108.5t169.5 66.5q-107 49 -161 134t-54 169q0 103 68.5 175.5t183.5 110t256 37.5q108 0 176 -22.5t126 -55.5q26 10 65 25.5t84.5 33t90 36
t82.5 33.5l-2 -251l-177 -26q8 -25 12.5 -52.5t4.5 -42.5q0 -88 -54.5 -168t-163 -130.5t-267.5 -50.5q-21 0 -59 1.5t-61 3.5q-37 -3 -51 -10.5t-14 -19.5q0 -23 45 -28.5t128 -11.5q30 -1 86.5 -4t124.5 -8q202 -14 298 -98t96 -205q0 -148 -142.5 -244.5t-428.5 -96.5z
M665 -158q112 0 153 24t41 66q0 40 -37 65t-106 29l-212 14q-50 3 -82.5 -11t-47.5 -37t-15 -48q0 -57 74.5 -79.5t231.5 -22.5zM600 563q69 0 111 42t42 111q0 70 -42 116t-111 46t-112 -46.5t-43 -115.5q0 -68 42 -110.5t113 -42.5zM474 1155v178l162 210h118l-94 -167
l88 -12v-209h-274z" />
    <glyph glyph-name="Hcircumflex" unicode="&#x124;" horiz-adv-x="1543" 
d="M148 0v1446h341v-564h566v564h340v-1446h-340v601h-566v-601h-341zM388 1569l270 275h232l263 -275h-253l-128 144l-144 -144h-240z" />
    <glyph glyph-name="hcircumflex" unicode="&#x125;" horiz-adv-x="1199" 
d="M113 0v1486h339v-600q24 33 59.5 68t89.5 59t136 24q98 0 180 -39t131.5 -114t49.5 -184v-700h-341v653q0 61 -45 92.5t-103 31.5q-38 0 -74 -15t-59 -44t-23 -71v-647h-340zM-106 1567l270 275h232l263 -275h-253l-128 144l-144 -144h-240z" />
    <glyph glyph-name="Hbar" unicode="&#x126;" horiz-adv-x="1678" 
d="M37 1089v183h1604v-183h-1604zM225 0v1446h340v-564h566v564h340v-1446h-340v601h-566v-601h-340z" />
    <glyph glyph-name="hbar" unicode="&#x127;" horiz-adv-x="1264" 
d="M40 1146v186h697v-186h-697zM178 0v1486h339v-600q25 33 60 68t89.5 59t135.5 24q98 0 180 -39t131.5 -114t49.5 -184v-700h-341v653q0 61 -45 92.5t-103 31.5q-38 0 -74 -15t-59 -44t-23 -71v-647h-340z" />
    <glyph glyph-name="Itilde" unicode="&#x128;" horiz-adv-x="637" 
d="M148 0v1446h341v-1446h-341zM11 1590l-50 172q38 41 85 70.5t120 29.5q59 0 112 -16t102.5 -32.5t94.5 -16.5q56 0 101 25.5t77 50.5l38 -197q-33 -28 -89 -51.5t-125 -23.5q-57 0 -105.5 14.5t-95.5 28.5t-101 14q-50 0 -85.5 -15.5t-78.5 -52.5z" />
    <glyph glyph-name="itilde" unicode="&#x129;" horiz-adv-x="735" 
d="M194 0v1034h325v-1034h-325zM52 1178l-50 172q38 41 85 70.5t120 29.5q59 0 112 -16t102.5 -32.5t94.5 -16.5q56 0 101 25.5t77 50.5l38 -197q-33 -28 -89 -51.5t-125 -23.5q-57 0 -105.5 14.5t-95.5 28.5t-101 14q-50 0 -85.5 -15.5t-78.5 -52.5z" />
    <glyph glyph-name="Imacron" unicode="&#x12a;" horiz-adv-x="637" 
d="M148 0v1446h341v-1446h-341zM-56 1604v212h752v-212h-752z" />
    <glyph glyph-name="imacron" unicode="&#x12b;" horiz-adv-x="760" 
d="M213 0v1034h325v-1034h-325zM4 1192v212h752v-212h-752z" />
    <glyph glyph-name="Ibreve" unicode="&#x12c;" horiz-adv-x="637" 
d="M148 0v1446h341v-1446h-341zM319 1567q-88 0 -166 30t-132.5 91t-73.5 151h208q14 -50 56.5 -82t107.5 -32t108 32t59 82h206q-18 -90 -73 -150.5t-132.5 -91t-167.5 -30.5z" />
    <glyph glyph-name="ibreve" unicode="&#x12d;" horiz-adv-x="550" 
d="M113 0v1034h325v-1034h-325zM280 1155q-88 0 -166 30t-132.5 91t-73.5 151h208q14 -50 56.5 -82t107.5 -32t108 32t59 82h206q-18 -90 -73 -150.5t-132.5 -91t-167.5 -30.5z" />
    <glyph glyph-name="Iogonek" unicode="&#x12e;" horiz-adv-x="637" 
d="M148 0v1446h341v-1446h-341zM291 -349q-104 0 -165.5 41.5t-61.5 125.5q0 52 36 98.5t152 86.5l234 -3q-107 -38 -144.5 -69t-37.5 -68q0 -30 15.5 -45t47.5 -15q45 0 79 14t66 33v-148q-28 -18 -89 -34.5t-132 -16.5z" />
    <glyph glyph-name="iogonek" unicode="&#x12f;" horiz-adv-x="550" 
d="M113 0v1034h325v-1034h-325zM119 1182v264h320v-264h-320zM248 -339q-104 0 -165.5 41.5t-61.5 125.5q0 52 36 98.5t152 86.5l234 -3q-107 -38 -144.5 -69t-37.5 -68q0 -30 15.5 -45t47.5 -15q45 0 79 14t66 33v-148q-28 -18 -89 -34.5t-132 -16.5z" />
    <glyph glyph-name="Idotaccent" unicode="&#x130;" horiz-adv-x="637" 
d="M148 0v1446h341v-1446h-341zM159 1594v264h320v-264h-320z" />
    <glyph glyph-name="dotlessi" unicode="&#x131;" horiz-adv-x="550" 
d="M113 0v1034h325v-1034h-325z" />
    <glyph glyph-name="Jcircumflex" unicode="&#x134;" horiz-adv-x="816" 
d="M298 -20q-65 0 -140.5 8.5t-114.5 17.5l3 309q28 -5 64 -11.5t74 -6.5q103 0 137.5 53t34.5 169v927h341v-1016q0 -149 -32 -249t-118.5 -150.5t-248.5 -50.5zM133 1567l270 275h232l263 -275h-253l-128 144l-144 -144h-240z" />
    <glyph glyph-name="jcircumflex" unicode="&#x135;" horiz-adv-x="599" 
d="M107 -332q-79 0 -105.5 15t-26.5 17l-1 227l69 9q59 10 81.5 33.5t22.5 63.5v1001h340v-1002q0 -181 -92 -272.5t-288 -91.5zM-69 1155l270 275h232l263 -275h-253l-128 144l-144 -144h-240z" />
    <glyph glyph-name="uni0136" unicode="&#x136;" horiz-adv-x="1465" 
d="M148 0v1446h354v-623l473 623h385l-417 -556l477 -890h-369l-352 642l-197 -245v-397h-354zM563 -468l95 161l-88 12v203h276v-168l-168 -208h-115z" />
    <glyph glyph-name="uni0137" unicode="&#x137;" horiz-adv-x="1176" 
d="M113 0v1486h340v-840l332 388h360l-376 -420l384 -614h-334l-260 413l-106 -117v-296h-340zM448 -468l95 161l-88 12v203h276v-168l-168 -208h-115z" />
    <glyph glyph-name="kgreenlandic" unicode="&#x138;" horiz-adv-x="1228" 
d="M113 0v1034h340v-424l383 424h340l-338 -341l367 -693h-386l-206 449l-160 -153v-296h-340z" />
    <glyph glyph-name="Lacute" unicode="&#x139;" horiz-adv-x="1156" 
d="M148 0l1 1446h341v-1163h603v-283h-945zM190 1567l206 291h342l-307 -291h-241z" />
    <glyph glyph-name="lacute" unicode="&#x13a;" horiz-adv-x="681" 
d="M474 -20q-129 0 -202.5 29t-107.5 75.5t-42.5 103.5t-8.5 113v1185h333v-1141q0 -47 22 -81.5t95 -43.5l45 -3v-209q-32 -11 -66 -19.5t-68 -8.5zM158 1650l206 291h342l-307 -291h-241z" />
    <glyph glyph-name="uni013B" unicode="&#x13b;" horiz-adv-x="1156" 
d="M148 0l1 1446h341v-1163h603v-283h-945zM467 -468l95 161l-88 12v203h276v-168l-168 -208h-115z" />
    <glyph glyph-name="uni013C" unicode="&#x13c;" horiz-adv-x="681" 
d="M474 -20q-129 0 -202.5 29t-107.5 75.5t-42.5 103.5t-8.5 113v1185h333v-1141q0 -47 22 -81.5t95 -43.5l45 -3v-209q-32 -11 -66 -19.5t-68 -8.5zM118 -468l95 161l-88 12v203h276v-168l-168 -208h-115z" />
    <glyph glyph-name="Lcaron" unicode="&#x13d;" horiz-adv-x="1156" 
d="M148 0l1 1446h341v-1163h603v-283h-945zM793 988l84 210l-79 13v235h221v-247l-89 -211h-137z" />
    <glyph glyph-name="lcaron" unicode="&#x13e;" horiz-adv-x="681" 
d="M474 -20q-129 0 -202.5 29t-107.5 75.5t-42.5 103.5t-8.5 113v1185h333v-1141q0 -47 22 -81.5t95 -43.5l45 -3v-209q-32 -11 -66 -19.5t-68 -8.5zM549 1028l84 210l-79 13v235h221v-247l-89 -211h-137z" />
    <glyph glyph-name="Ldot" unicode="&#x13f;" horiz-adv-x="1156" 
d="M148 0l1 1446h341v-1163h603v-283h-945zM730 649v318h330v-318h-330z" />
    <glyph glyph-name="ldot" unicode="&#x140;" horiz-adv-x="914" 
d="M474 -20q-129 0 -202.5 29t-107.5 75.5t-42.5 103.5t-8.5 113v1185h333v-1141q0 -47 22 -81.5t95 -43.5l45 -3v-209q-32 -11 -66 -19.5t-68 -8.5zM572 615v318h330v-318h-330z" />
    <glyph glyph-name="Lslash" unicode="&#x141;" horiz-adv-x="1188" 
d="M5 553v280l827 219v-266zM180 0l1 1446h341v-1163h603v-283h-945z" />
    <glyph glyph-name="lslash" unicode="&#x142;" horiz-adv-x="758" 
d="M70 293v287l605 402v-272zM545 -20q-128 0 -202 29t-108 75.5t-42.5 103.5t-8.5 113v1185h333v-1141q0 -47 22 -81.5t95 -43.5l46 -3v-209q-33 -11 -67 -19.5t-68 -8.5z" />
    <glyph glyph-name="Nacute" unicode="&#x143;" horiz-adv-x="1590" 
d="M148 0v1446h341l612 -882v882h340v-1446h-307l-645 928v-928h-341zM672 1567l206 291h342l-307 -291h-241z" />
    <glyph glyph-name="nacute" unicode="&#x144;" horiz-adv-x="1200" 
d="M113 0v1034h336v-145q22 36 58.5 71t93 58t137.5 23q93 0 175.5 -36t134.5 -114.5t52 -205.5v-685h-342v640q0 68 -44 102.5t-101 34.5q-38 0 -75 -14.5t-61 -43t-24 -71.5v-648h-340zM486 1155l206 291h342l-307 -291h-241z" />
    <glyph glyph-name="uni0145" unicode="&#x145;" horiz-adv-x="1590" 
d="M148 0v1446h341l612 -882v882h340v-1446h-307l-645 928v-928h-341zM640 -468l95 161l-88 12v203h276v-168l-168 -208h-115z" />
    <glyph glyph-name="uni0146" unicode="&#x146;" horiz-adv-x="1200" 
d="M113 0v1034h336v-145q22 36 58.5 71t93 58t137.5 23q93 0 175.5 -36t134.5 -114.5t52 -205.5v-685h-342v640q0 68 -44 102.5t-101 34.5q-38 0 -75 -14.5t-61 -43t-24 -71.5v-648h-340zM458 -468l95 161l-88 12v203h276v-168l-168 -208h-115z" />
    <glyph glyph-name="Ncaron" unicode="&#x147;" horiz-adv-x="1590" 
d="M148 0v1446h341l612 -882v882h340v-1446h-307l-645 928v-928h-341zM677 1567l-269 277h241l144 -157l128 157h253l-263 -277h-234z" />
    <glyph glyph-name="ncaron" unicode="&#x148;" horiz-adv-x="1200" 
d="M113 0v1034h336v-145q22 36 58.5 71t93 58t137.5 23q93 0 175.5 -36t134.5 -114.5t52 -205.5v-685h-342v640q0 68 -44 102.5t-101 34.5q-38 0 -75 -14.5t-61 -43t-24 -71.5v-648h-340zM490 1155l-269 277h241l144 -157l128 157h253l-263 -277h-234z" />
    <glyph glyph-name="Eng" unicode="&#x14a;" horiz-adv-x="1590" 
d="M1041 -480q-65 0 -140.5 8.5t-114.5 17.5l3 309q28 -5 64 -11.5t74 -6.5q88 0 130 39t42 126v49l-610 877v-928h-341v1446h341l612 -882v882h340l-1 -1474q0 -165 -37 -264t-124 -143.5t-238 -44.5z" />
    <glyph glyph-name="eng" unicode="&#x14b;" horiz-adv-x="1214" 
d="M732 -332q-84 0 -104 11.5t-20 13.5v235l56 5q51 8 73.5 28.5t22.5 66.5v662q0 55 -32 87.5t-92 32.5q-54 0 -98 -28.5t-82 -83.5v-698h-343l5 1034h332v-161q50 55 105 95.5t114.5 63t124.5 22.5q139 0 223 -85t84 -227v-707q0 -114 -46 -196t-129.5 -126.5
t-193.5 -44.5z" />
    <glyph glyph-name="Omacron" unicode="&#x14c;" horiz-adv-x="1546" 
d="M775 -20q-210 0 -363.5 90.5t-237.5 256.5t-84 393q0 229 85 396t239.5 258.5t360.5 91.5t358.5 -91.5t237 -258.5t84.5 -396q0 -227 -83 -393t-236 -256.5t-361 -90.5zM775 256q93 0 163 45.5t108.5 146.5t38.5 267q0 171 -39 275.5t-109 152t-162 47.5q-93 0 -163 -48
t-109.5 -152.5t-39.5 -274.5q0 -166 39.5 -267t109.5 -146.5t163 -45.5zM397 1604v212h752v-212h-752z" />
    <glyph glyph-name="omacron" unicode="&#x14d;" 
d="M580 -20q-156 0 -271 66.5t-178 186t-63 278.5q0 162 64.5 284.5t180 190.5t269.5 68q157 0 271.5 -68.5t177 -191t62.5 -283.5q0 -155 -62 -274.5t-177 -188t-274 -68.5zM582 230q69 0 108 43.5t55 111t16 137.5q0 69 -15 135t-54 108.5t-110 42.5t-110.5 -41.5
t-55.5 -107t-16 -137.5q0 -68 15 -135.5t54.5 -112t112.5 -44.5zM205 1192v212h752v-212h-752z" />
    <glyph glyph-name="Obreve" unicode="&#x14e;" horiz-adv-x="1546" 
d="M775 -20q-210 0 -363.5 90.5t-237.5 256.5t-84 393q0 229 85 396t239.5 258.5t360.5 91.5t358.5 -91.5t237 -258.5t84.5 -396q0 -227 -83 -393t-236 -256.5t-361 -90.5zM775 256q93 0 163 45.5t108.5 146.5t38.5 267q0 171 -39 275.5t-109 152t-162 47.5q-93 0 -163 -48
t-109.5 -152.5t-39.5 -274.5q0 -166 39.5 -267t109.5 -146.5t163 -45.5zM773 1567q-88 0 -166 30t-132.5 91t-73.5 151h208q14 -50 56.5 -82t107.5 -32t108 32t59 82h206q-18 -90 -73 -150.5t-132.5 -91t-167.5 -30.5z" />
    <glyph glyph-name="obreve" unicode="&#x14f;" 
d="M580 -20q-156 0 -271 66.5t-178 186t-63 278.5q0 162 64.5 284.5t180 190.5t269.5 68q157 0 271.5 -68.5t177 -191t62.5 -283.5q0 -155 -62 -274.5t-177 -188t-274 -68.5zM582 230q69 0 108 43.5t55 111t16 137.5q0 69 -15 135t-54 108.5t-110 42.5t-110.5 -41.5
t-55.5 -107t-16 -137.5q0 -68 15 -135.5t54.5 -112t112.5 -44.5zM581 1155q-88 0 -166 30t-132.5 91t-73.5 151h208q14 -50 56.5 -82t107.5 -32t108 32t59 82h206q-18 -90 -73 -150.5t-132.5 -91t-167.5 -30.5z" />
    <glyph glyph-name="Ohungarumlaut" unicode="&#x150;" horiz-adv-x="1546" 
d="M775 -20q-210 0 -363.5 90.5t-237.5 256.5t-84 393q0 229 85 396t239.5 258.5t360.5 91.5t358.5 -91.5t237 -258.5t84.5 -396q0 -227 -83 -393t-236 -256.5t-361 -90.5zM775 256q93 0 163 45.5t108.5 146.5t38.5 267q0 171 -39 275.5t-109 152t-162 47.5q-93 0 -163 -48
t-109.5 -152.5t-39.5 -274.5q0 -166 39.5 -267t109.5 -146.5t163 -45.5zM846 1567l251 291h311l-321 -291h-241zM459 1567l204 291h300l-263 -291h-241z" />
    <glyph glyph-name="ohungarumlaut" unicode="&#x151;" 
d="M580 -20q-156 0 -271 66.5t-178 186t-63 278.5q0 162 64.5 284.5t180 190.5t269.5 68q157 0 271.5 -68.5t177 -191t62.5 -283.5q0 -155 -62 -274.5t-177 -188t-274 -68.5zM582 230q69 0 108 43.5t55 111t16 137.5q0 69 -15 135t-54 108.5t-110 42.5t-110.5 -41.5
t-55.5 -107t-16 -137.5q0 -68 15 -135.5t54.5 -112t112.5 -44.5zM654 1155l251 291h311l-321 -291h-241zM267 1155l204 291h300l-263 -291h-241z" />
    <glyph glyph-name="OE" unicode="&#x152;" horiz-adv-x="2262" 
d="M1468 589v-302l697 -1v-286h-1037v90q-70 -54 -159 -82t-194 -28q-210 0 -363.5 90.5t-237.5 256.5t-84 393q0 229 85 396t239.5 258.5t360.5 91.5q105 0 194 -28t159 -83v91h1031l-2 -284h-686v-295h585v-278h-588zM775 256q93 0 163 45.5t108.5 146.5t38.5 267
q0 171 -39 275.5t-109 152t-162 47.5q-93 0 -163 -48t-109.5 -152.5t-39.5 -274.5q0 -166 39.5 -267t109.5 -146.5t163 -45.5z" />
    <glyph glyph-name="oe" unicode="&#x153;" horiz-adv-x="1856" 
d="M1778 524v-85h-674q0 -71 23 -119.5t65 -73.5t98 -25q64 0 113 26.5t73 92.5h303q-17 -113 -89.5 -193.5t-176 -123.5t-215.5 -43q-113 0 -206.5 36.5t-159.5 103.5q-62 -66 -150.5 -103t-201.5 -37q-156 0 -271 66.5t-178 186t-63 278.5q0 162 64.5 284.5t180 190.5
t269.5 68q111 0 200.5 -36.5t151.5 -106.5q62 67 150 105t199 38q163 0 273 -68.5t166 -188t56 -273.5zM582 230q69 0 108 43.5t55 111t16 137.5q0 69 -15 135t-54 108.5t-110 42.5t-110.5 -41.5t-55.5 -107t-16 -137.5q0 -68 15 -135.5t54.5 -112t112.5 -44.5zM1103 635
h359q0 51 -20.5 93.5t-60 67.5t-99.5 25q-53 0 -93.5 -26.5t-63 -69t-22.5 -90.5z" />
    <glyph glyph-name="Racute" unicode="&#x154;" horiz-adv-x="1409" 
d="M148 0v1446h633q181 0 293 -58.5t164 -160t52 -230.5q0 -113 -32 -191.5t-86.5 -132t-122.5 -90.5l261 -583h-350l-223 528h-248v-528h-341zM489 785h245q96 0 154.5 61t58.5 145q0 88 -60 144t-143 56h-255v-406zM567 1567l206 291h342l-307 -291h-241z" />
    <glyph glyph-name="racute" unicode="&#x155;" horiz-adv-x="844" 
d="M113 0v1034h328v-265q24 81 69.5 145.5t112.5 102t155 37.5q11 0 19.5 -0.5t10.5 -2.5v-323q-5 2 -12.5 3t-15.5 1q-98 10 -161.5 -3t-100 -42t-51 -69t-14.5 -87v-531h-340zM338 1155l206 291h342l-307 -291h-241z" />
    <glyph glyph-name="uni0156" unicode="&#x156;" horiz-adv-x="1409" 
d="M148 0v1446h633q181 0 293 -58.5t164 -160t52 -230.5q0 -113 -32 -191.5t-86.5 -132t-122.5 -90.5l261 -583h-350l-223 528h-248v-528h-341zM489 785h245q96 0 154.5 61t58.5 145q0 88 -60 144t-143 56h-255v-406zM561 -468l95 161l-88 12v203h276v-168l-168 -208h-115z
" />
    <glyph glyph-name="uni0157" unicode="&#x157;" horiz-adv-x="844" 
d="M113 0v1034h328v-265q24 81 69.5 145.5t112.5 102t155 37.5q11 0 19.5 -0.5t10.5 -2.5v-323q-5 2 -12.5 3t-15.5 1q-98 10 -161.5 -3t-100 -42t-51 -69t-14.5 -87v-531h-340zM134 -468l95 161l-88 12v203h276v-168l-168 -208h-115z" />
    <glyph glyph-name="Rcaron" unicode="&#x158;" horiz-adv-x="1409" 
d="M148 0v1446h633q181 0 293 -58.5t164 -160t52 -230.5q0 -113 -32 -191.5t-86.5 -132t-122.5 -90.5l261 -583h-350l-223 528h-248v-528h-341zM489 785h245q96 0 154.5 61t58.5 145q0 88 -60 144t-143 56h-255v-406zM572 1567l-269 277h241l144 -157l128 157h253l-263 -277
h-234z" />
    <glyph glyph-name="rcaron" unicode="&#x159;" horiz-adv-x="844" 
d="M113 0v1034h328v-265q24 81 69.5 145.5t112.5 102t155 37.5q11 0 19.5 -0.5t10.5 -2.5v-323q-5 2 -12.5 3t-15.5 1q-98 10 -161.5 -3t-100 -42t-51 -69t-14.5 -87v-531h-340zM343 1155l-269 277h241l144 -157l128 157h253l-263 -277h-234z" />
    <glyph glyph-name="Sacute" unicode="&#x15a;" horiz-adv-x="1404" 
d="M715 -20q-110 0 -216 27.5t-194.5 83t-145.5 139.5t-67 197h348q13 -59 51 -99.5t100 -62t144 -21.5q58 0 113 15.5t91 49.5t36 90q0 68 -53 98.5t-135 47.5l-259 52q-122 24 -210.5 76t-136 137t-47.5 205q0 141 78 241.5t211.5 154t300.5 53.5q184 0 313 -58
t197 -159.5t71 -229.5h-340q-6 65 -39 104.5t-87 58.5t-125 19q-119 0 -171 -46t-52 -102t41 -92t136 -54l233 -45q146 -25 237.5 -84.5t135 -146t43.5 -195.5q0 -136 -78.5 -238t-213.5 -159t-310 -57zM585 1567l206 291h342l-307 -291h-241z" />
    <glyph glyph-name="sacute" unicode="&#x15b;" horiz-adv-x="1073" 
d="M549 -20q-108 0 -211 36t-176 115t-94 206h292q13 -53 47 -81t72.5 -38t67.5 -10q74 0 120 21t46 64q0 36 -28.5 56.5t-99.5 32.5l-167 31q-143 27 -230 99.5t-88 205.5q-1 95 51 171t153 120.5t247 44.5q202 0 321 -88t120 -243h-280q-11 53 -56.5 80.5t-108.5 27.5
q-64 0 -107.5 -21.5t-43.5 -64.5q0 -33 38 -53t121 -36l151 -31q93 -23 151 -61.5t89.5 -83.5t43 -89.5t11.5 -78.5q0 -107 -58.5 -181t-161 -112.5t-232.5 -38.5zM430 1155l206 291h342l-307 -291h-241z" />
    <glyph glyph-name="Scircumflex" unicode="&#x15c;" horiz-adv-x="1404" 
d="M715 -20q-110 0 -216 27.5t-194.5 83t-145.5 139.5t-67 197h348q13 -59 51 -99.5t100 -62t144 -21.5q58 0 113 15.5t91 49.5t36 90q0 68 -53 98.5t-135 47.5l-259 52q-122 24 -210.5 76t-136 137t-47.5 205q0 141 78 241.5t211.5 154t300.5 53.5q184 0 313 -58
t197 -159.5t71 -229.5h-340q-6 65 -39 104.5t-87 58.5t-125 19q-119 0 -171 -46t-52 -102t41 -92t136 -54l233 -45q146 -25 237.5 -84.5t135 -146t43.5 -195.5q0 -136 -78.5 -238t-213.5 -159t-310 -57zM322 1567l270 275h232l263 -275h-253l-128 144l-144 -144h-240z" />
    <glyph glyph-name="scircumflex" unicode="&#x15d;" horiz-adv-x="1073" 
d="M549 -20q-108 0 -211 36t-176 115t-94 206h292q13 -53 47 -81t72.5 -38t67.5 -10q74 0 120 21t46 64q0 36 -28.5 56.5t-99.5 32.5l-167 31q-143 27 -230 99.5t-88 205.5q-1 95 51 171t153 120.5t247 44.5q202 0 321 -88t120 -243h-280q-11 53 -56.5 80.5t-108.5 27.5
q-64 0 -107.5 -21.5t-43.5 -64.5q0 -33 38 -53t121 -36l151 -31q93 -23 151 -61.5t89.5 -83.5t43 -89.5t11.5 -78.5q0 -107 -58.5 -181t-161 -112.5t-232.5 -38.5zM166 1155l270 275h232l263 -275h-253l-128 144l-144 -144h-240z" />
    <glyph glyph-name="Scedilla" unicode="&#x15e;" horiz-adv-x="1404" 
d="M705 -432q-66 0 -129.5 12t-117.5 44l44 109q33 -19 75.5 -35t86.5 -16t69.5 15t25.5 42q0 38 -38 58t-135 21q-14 0 -19 3.5t1 17.5l73 171h144l-43 -116q79 0 125.5 -25t67 -61.5t20.5 -72.5q0 -52 -35 -89t-91.5 -57.5t-123.5 -20.5zM715 -20q-110 0 -216 27.5
t-194.5 83t-145.5 139.5t-67 197h348q13 -59 51 -99.5t100 -62t144 -21.5q58 0 113 15.5t91 49.5t36 90q0 68 -53 98.5t-135 47.5l-259 52q-122 24 -210.5 76t-136 137t-47.5 205q0 141 78 241.5t211.5 154t300.5 53.5q184 0 313 -58t197 -159.5t71 -229.5h-340
q-6 65 -39 104.5t-87 58.5t-125 19q-119 0 -171 -46t-52 -102t41 -92t136 -54l233 -45q146 -25 237.5 -84.5t135 -146t43.5 -195.5q0 -136 -78.5 -238t-213.5 -159t-310 -57z" />
    <glyph glyph-name="scedilla" unicode="&#x15f;" horiz-adv-x="1073" 
d="M547 -432q-66 0 -129.5 12t-118.5 44l44 109q33 -19 76 -35t86 -16q44 0 70 15t26 42q0 38 -38.5 58t-135.5 21q-14 0 -19 3.5t1 17.5l74 171h143l-43 -116q79 0 125.5 -25t67 -61.5t20.5 -72.5q0 -52 -35 -89t-91.5 -57.5t-122.5 -20.5zM549 -20q-108 0 -211 36
t-176 115t-94 206h292q13 -53 47 -81t72.5 -38t67.5 -10q74 0 120 21t46 64q0 36 -28.5 56.5t-99.5 32.5l-167 31q-143 27 -230 99.5t-88 205.5q-1 95 51 171t153 120.5t247 44.5q202 0 321 -88t120 -243h-280q-11 53 -56.5 80.5t-108.5 27.5q-64 0 -107.5 -21.5
t-43.5 -64.5q0 -33 38 -53t121 -36l151 -31q93 -23 151 -61.5t89.5 -83.5t43 -89.5t11.5 -78.5q0 -107 -58.5 -181t-161 -112.5t-232.5 -38.5z" />
    <glyph glyph-name="Scaron" unicode="&#x160;" horiz-adv-x="1404" 
d="M715 -20q-110 0 -216 27.5t-194.5 83t-145.5 139.5t-67 197h348q13 -59 51 -99.5t100 -62t144 -21.5q58 0 113 15.5t91 49.5t36 90q0 68 -53 98.5t-135 47.5l-259 52q-122 24 -210.5 76t-136 137t-47.5 205q0 141 78 241.5t211.5 154t300.5 53.5q184 0 313 -58
t197 -159.5t71 -229.5h-340q-6 65 -39 104.5t-87 58.5t-125 19q-119 0 -171 -46t-52 -102t41 -92t136 -54l233 -45q146 -25 237.5 -84.5t135 -146t43.5 -195.5q0 -136 -78.5 -238t-213.5 -159t-310 -57zM590 1567l-269 277h241l144 -157l128 157h253l-263 -277h-234z" />
    <glyph glyph-name="scaron" unicode="&#x161;" horiz-adv-x="1073" 
d="M549 -20q-108 0 -211 36t-176 115t-94 206h292q13 -53 47 -81t72.5 -38t67.5 -10q74 0 120 21t46 64q0 36 -28.5 56.5t-99.5 32.5l-167 31q-143 27 -230 99.5t-88 205.5q-1 95 51 171t153 120.5t247 44.5q202 0 321 -88t120 -243h-280q-11 53 -56.5 80.5t-108.5 27.5
q-64 0 -107.5 -21.5t-43.5 -64.5q0 -33 38 -53t121 -36l151 -31q93 -23 151 -61.5t89.5 -83.5t43 -89.5t11.5 -78.5q0 -107 -58.5 -181t-161 -112.5t-232.5 -38.5zM434 1155l-269 277h241l144 -157l128 157h253l-263 -277h-234z" />
    <glyph glyph-name="uni0162" unicode="&#x162;" horiz-adv-x="1253" 
d="M645 -431q-66 0 -129.5 12t-118.5 44l44 108q34 -19 76.5 -34.5t85.5 -15.5q44 0 70 15t26 42q0 37 -38.5 57.5t-135.5 20.5q-14 0 -19 4t1 18l74 171h143l-43 -116q79 -1 125.5 -25.5t67 -61.5t20.5 -73q0 -51 -34.5 -88.5t-91.5 -57.5t-123 -20zM457 0v1145h-423v301
h1185v-301h-420v-1145h-342z" />
    <glyph glyph-name="uni0163" unicode="&#x163;" horiz-adv-x="857" 
d="M496 -417q-66 0 -129.5 12t-117.5 45l44 108q33 -19 75.5 -35t86.5 -16t69.5 15.5t25.5 41.5q0 38 -38 58t-135 21q-14 0 -19 3.5t1 17.5l73 171h144l-43 -115q79 -1 125.5 -26t67 -61.5t20.5 -72.5q0 -52 -35 -89t-91.5 -57.5t-123.5 -20.5zM588 -13q-149 0 -230.5 37.5
t-113 103t-31.5 148.5v525h-168v233h180l87 317h241v-315h227v-235h-227l1 -510q0 -31 9.5 -46t26.5 -20t41 -5h151v-205q-21 -9 -65 -18.5t-129 -9.5z" />
    <glyph glyph-name="Tcaron" unicode="&#x164;" horiz-adv-x="1253" 
d="M457 0v1145h-423v301h1185v-301h-420v-1145h-342zM527 1567l-269 277h241l144 -157l128 157h253l-263 -277h-234z" />
    <glyph glyph-name="tcaron" unicode="&#x165;" horiz-adv-x="925" 
d="M588 -13q-149 0 -230.5 37.5t-113 103t-31.5 148.5v525h-168v233h180l87 317h241v-315h227v-235h-227l1 -510q0 -31 9.5 -46t26.5 -20t41 -5h151v-205q-21 -9 -65 -18.5t-129 -9.5zM618 1112l84 210l-79 13v235h221v-247l-89 -211h-137z" />
    <glyph glyph-name="Tbar" unicode="&#x166;" horiz-adv-x="1253" 
d="M209 572v244h832v-244h-832zM457 0v1145h-423v301h1185v-301h-420v-1145h-342z" />
    <glyph glyph-name="tbar" unicode="&#x167;" horiz-adv-x="857" 
d="M68 471v188h688v-188h-688zM588 -13q-149 0 -230.5 37.5t-113 103t-31.5 148.5v525h-168v233h180l87 317h241v-315h227v-235h-227l1 -510q0 -31 9.5 -46t26.5 -20t41 -5h151v-205q-21 -9 -65 -18.5t-129 -9.5z" />
    <glyph glyph-name="Utilde" unicode="&#x168;" horiz-adv-x="1470" 
d="M749 -20q-222 0 -353.5 74t-189.5 208.5t-58 316.5v867h346v-886q0 -156 74 -224.5t181 -68.5q72 0 130.5 30t92.5 94.5t34 168.5v886h345v-871q0 -180 -58 -313.5t-190 -207.5t-354 -74zM441 1590l-50 172q38 41 85 70.5t120 29.5q59 0 112 -16t102.5 -32.5t94.5 -16.5
q56 0 101 25.5t77 50.5l38 -197q-33 -28 -89 -51.5t-125 -23.5q-57 0 -105.5 14.5t-95.5 28.5t-101 14q-50 0 -85.5 -15.5t-78.5 -52.5z" />
    <glyph glyph-name="utilde" unicode="&#x169;" horiz-adv-x="1204" 
d="M493 -20q-67 0 -136 22t-127 64.5t-93.5 104t-35.5 141.5v722h341v-676q0 -58 40 -96.5t115 -38.5q72 0 114 37.5t42 99.5v674h338v-1034h-254l-40 209q-19 -97 -70 -146.5t-114.5 -66t-119.5 -16.5zM289 1178l-50 172q38 41 85 70.5t120 29.5q59 0 112 -16t102.5 -32.5
t94.5 -16.5q56 0 101 25.5t77 50.5l38 -197q-33 -28 -89 -51.5t-125 -23.5q-57 0 -105.5 14.5t-95.5 28.5t-101 14q-50 0 -85.5 -15.5t-78.5 -52.5z" />
    <glyph glyph-name="Umacron" unicode="&#x16a;" horiz-adv-x="1470" 
d="M749 -20q-222 0 -353.5 74t-189.5 208.5t-58 316.5v867h346v-886q0 -156 74 -224.5t181 -68.5q72 0 130.5 30t92.5 94.5t34 168.5v886h345v-871q0 -180 -58 -313.5t-190 -207.5t-354 -74zM374 1604v212h752v-212h-752z" />
    <glyph glyph-name="umacron" unicode="&#x16b;" horiz-adv-x="1204" 
d="M493 -20q-67 0 -136 22t-127 64.5t-93.5 104t-35.5 141.5v722h341v-676q0 -58 40 -96.5t115 -38.5q72 0 114 37.5t42 99.5v674h338v-1034h-254l-40 209q-19 -97 -70 -146.5t-114.5 -66t-119.5 -16.5zM223 1192v212h752v-212h-752z" />
    <glyph glyph-name="Ubreve" unicode="&#x16c;" horiz-adv-x="1470" 
d="M749 -20q-222 0 -353.5 74t-189.5 208.5t-58 316.5v867h346v-886q0 -156 74 -224.5t181 -68.5q72 0 130.5 30t92.5 94.5t34 168.5v886h345v-871q0 -180 -58 -313.5t-190 -207.5t-354 -74zM749 1567q-88 0 -166 30t-132.5 91t-73.5 151h208q14 -50 56.5 -82t107.5 -32
t108 32t59 82h206q-18 -90 -73 -150.5t-132.5 -91t-167.5 -30.5z" />
    <glyph glyph-name="ubreve" unicode="&#x16d;" horiz-adv-x="1204" 
d="M493 -20q-67 0 -136 22t-127 64.5t-93.5 104t-35.5 141.5v722h341v-676q0 -58 40 -96.5t115 -38.5q72 0 114 37.5t42 99.5v674h338v-1034h-254l-40 209q-19 -97 -70 -146.5t-114.5 -66t-119.5 -16.5zM598 1155q-88 0 -166 30t-132.5 91t-73.5 151h208q14 -50 56.5 -82
t107.5 -32t108 32t59 82h206q-18 -90 -73 -150.5t-132.5 -91t-167.5 -30.5z" />
    <glyph glyph-name="Uring" unicode="&#x16e;" horiz-adv-x="1470" 
d="M749 -20q-222 0 -353.5 74t-189.5 208.5t-58 316.5v867h346v-886q0 -156 74 -224.5t181 -68.5q72 0 130.5 30t92.5 94.5t34 168.5v886h345v-871q0 -180 -58 -313.5t-190 -207.5t-354 -74zM750 1539q-94 0 -158.5 66t-64.5 161q0 89 65.5 152t157.5 63q62 0 112.5 -29.5
t80.5 -79.5t30 -110q0 -94 -65 -158.5t-158 -64.5zM748 1661q40 0 67.5 30t27.5 69q0 41 -27.5 68t-67.5 27t-69.5 -27t-29.5 -68q0 -39 29.5 -69t69.5 -30z" />
    <glyph glyph-name="uring" unicode="&#x16f;" horiz-adv-x="1204" 
d="M493 -20q-67 0 -136 22t-127 64.5t-93.5 104t-35.5 141.5v722h341v-676q0 -58 40 -96.5t115 -38.5q72 0 114 37.5t42 99.5v674h338v-1034h-254l-40 209q-19 -97 -70 -146.5t-114.5 -66t-119.5 -16.5zM599 1127q-94 0 -158.5 66t-64.5 161q0 89 65.5 152t157.5 63
q62 0 112.5 -29.5t80.5 -79.5t30 -110q0 -94 -65 -158.5t-158 -64.5zM597 1249q40 0 67.5 30t27.5 69q0 41 -27.5 68t-67.5 27t-69.5 -27t-29.5 -68q0 -39 29.5 -69t69.5 -30z" />
    <glyph glyph-name="Uhungarumlaut" unicode="&#x170;" horiz-adv-x="1470" 
d="M749 -20q-222 0 -353.5 74t-189.5 208.5t-58 316.5v867h346v-886q0 -156 74 -224.5t181 -68.5q72 0 130.5 30t92.5 94.5t34 168.5v886h345v-871q0 -180 -58 -313.5t-190 -207.5t-354 -74zM823 1567l251 291h311l-321 -291h-241zM436 1567l204 291h300l-263 -291h-241z
" />
    <glyph glyph-name="uhungarumlaut" unicode="&#x171;" horiz-adv-x="1204" 
d="M493 -20q-67 0 -136 22t-127 64.5t-93.5 104t-35.5 141.5v722h341v-676q0 -58 40 -96.5t115 -38.5q72 0 114 37.5t42 99.5v674h338v-1034h-254l-40 209q-19 -97 -70 -146.5t-114.5 -66t-119.5 -16.5zM671 1155l251 291h311l-321 -291h-241zM284 1155l204 291h300
l-263 -291h-241z" />
    <glyph glyph-name="Uogonek" unicode="&#x172;" horiz-adv-x="1470" 
d="M748 -336q-104 0 -165.5 42t-61.5 126q0 52 36 98.5t152 85.5l234 -3q-107 -37 -144.5 -68.5t-37.5 -68.5q0 -29 15.5 -44.5t47.5 -15.5q45 0 79 14t66 33v-148q-28 -18 -89 -34.5t-132 -16.5zM749 -20q-222 0 -353.5 74t-189.5 208.5t-58 316.5v867h346v-886
q0 -156 74 -224.5t181 -68.5q72 0 130.5 30t92.5 94.5t34 168.5v886h345v-871q0 -180 -58 -313.5t-190 -207.5t-354 -74z" />
    <glyph glyph-name="uogonek" unicode="&#x173;" horiz-adv-x="1204" 
d="M493 -20q-67 0 -136 22t-127 64.5t-93.5 104t-35.5 141.5v722h341v-676q0 -58 40 -96.5t115 -38.5q72 0 114 37.5t42 99.5v674h338v-1034h-254l-40 209q-19 -97 -70 -146.5t-114.5 -66t-119.5 -16.5zM887 -338q-104 0 -165.5 41.5t-61.5 125.5q0 52 36 98.5t152 86.5
l234 -3q-107 -38 -144.5 -69t-37.5 -68q0 -30 15.5 -45t47.5 -15q45 0 79 14t66 33v-148q-28 -18 -89 -34.5t-132 -16.5z" />
    <glyph glyph-name="Wcircumflex" unicode="&#x174;" horiz-adv-x="1950" 
d="M465 0l-431 1446h331l247 -865l242 865h242l248 -865l242 865h331l-430 -1446h-262l-250 866l-252 -866h-258zM589 1567l270 275h232l263 -275h-253l-128 144l-144 -144h-240z" />
    <glyph glyph-name="wcircumflex" unicode="&#x175;" horiz-adv-x="1585" 
d="M361 0l-342 1034h299l179 -572h4l171 572h239l170 -573h4l176 573h306l-352 -1034h-256l-174 564l-177 -564h-247zM415 1155l270 275h232l263 -275h-253l-128 144l-144 -144h-240z" />
    <glyph glyph-name="Ycircumflex" unicode="&#x176;" horiz-adv-x="1389" 
d="M522 0v605l-505 841h368l310 -550l305 550h372l-509 -841v-605h-341zM350 1568l270 275h232l263 -275h-253l-128 144l-144 -144h-240z" />
    <glyph glyph-name="ycircumflex" unicode="&#x177;" horiz-adv-x="1152" 
d="M301 -330q-113 0 -161 20l-48 20v216l100 -5q72 -5 114 5t63 27.5t28.5 35t9.5 24.5l12 39l-402 982h336l222 -618l227 618h333l-411 -1007q-61 -147 -126 -224.5t-138.5 -105t-158.5 -27.5zM199 1155l270 275h232l263 -275h-253l-128 144l-144 -144h-240z" />
    <glyph glyph-name="Ydieresis" unicode="&#x178;" horiz-adv-x="1389" 
d="M522 0v605l-505 841h368l310 -550l305 550h372l-509 -841v-605h-341zM827 1595l3 264h316l-3 -264h-316zM326 1595l3 264h316l-3 -264h-316z" />
    <glyph glyph-name="Zacute" unicode="&#x179;" horiz-adv-x="1369" 
d="M99 0v160l707 1004h-651v282h1140v-153l-720 -1007h709v-286h-1185zM620 1567l206 291h342l-307 -291h-241z" />
    <glyph glyph-name="zacute" unicode="&#x17a;" horiz-adv-x="1007" 
d="M56 0v184l478 615h-451v235h865v-184l-478 -615h481v-235h-895zM383 1155l206 291h342l-307 -291h-241z" />
    <glyph glyph-name="Zdotaccent" unicode="&#x17b;" horiz-adv-x="1369" 
d="M99 0v160l707 1004h-651v282h1140v-153l-720 -1007h709v-286h-1185zM581 1594v264h320v-264h-320z" />
    <glyph glyph-name="zdotaccent" unicode="&#x17c;" horiz-adv-x="1007" 
d="M56 0v184l478 615h-451v235h865v-184l-478 -615h481v-235h-895zM344 1182v264h320v-264h-320z" />
    <glyph glyph-name="Zcaron" unicode="&#x17d;" horiz-adv-x="1369" 
d="M99 0v160l707 1004h-651v282h1140v-153l-720 -1007h709v-286h-1185zM624 1567l-269 277h241l144 -157l128 157h253l-263 -277h-234z" />
    <glyph glyph-name="zcaron" unicode="&#x17e;" horiz-adv-x="1007" 
d="M56 0v184l478 615h-451v235h865v-184l-478 -615h481v-235h-895zM387 1155l-269 277h241l144 -157l128 157h253l-263 -277h-234z" />
    <glyph glyph-name="uni018F" unicode="&#x18f;" horiz-adv-x="1542" 
d="M768 -20q-198 0 -350.5 85.5t-239.5 270t-87 479.5h953q0 161 -75.5 248.5t-208.5 87.5q-66 0 -119.5 -19t-91 -51t-57.5 -69t-20 -74h-382q0 89 47 181.5t136 171t214 127t281 48.5q213 0 366 -85t235.5 -247t82.5 -395q0 -259 -89 -427t-243.5 -250t-351.5 -82z
M768 275q89 0 149.5 37t91.5 104t31 155l-534 1q0 -89 30.5 -156t89 -104t142.5 -37z" />
    <glyph glyph-name="florin" unicode="&#x192;" horiz-adv-x="1095" 
d="M-17 -335l33 224l121 1q55 0 80 26t38 104l138 781h-167l40 233h168l25 143q23 127 114.5 198t227.5 71h258l-37 -223h-127q-38 0 -72 -32t-43 -78l-13 -79h212l-43 -233h-201l-152 -864q-22 -126 -113.5 -199t-230.5 -73h-256z" />
    <glyph glyph-name="Ohorn" unicode="&#x1a0;" horiz-adv-x="1715" 
d="M775 -20q-210 0 -363.5 90.5t-237.5 256.5t-84 393q0 229 85 396t239.5 258.5t360.5 91.5q151 0 274 -50t212 -143q49 0 84 3.5t57.5 22t36.5 63.5t20 127h214q-1 -132 -28 -216t-91 -125t-179 -42q39 -80 59.5 -177t20.5 -209q0 -227 -83 -393t-236 -256.5t-361 -90.5z
M775 256q93 0 163 45.5t108.5 146.5t38.5 267q0 171 -39 275.5t-109 152t-162 47.5q-93 0 -163 -48t-109.5 -152.5t-39.5 -274.5q0 -166 39.5 -267t109.5 -146.5t163 -45.5z" />
    <glyph glyph-name="ohorn" unicode="&#x1a1;" horiz-adv-x="1318" 
d="M580 -20q-156 0 -271 66.5t-178 186t-63 278.5q0 162 64.5 284.5t180 190.5t269.5 68q120 0 216 -41t163 -116q52 1 85.5 13t51.5 57.5t26 144.5h213q-1 -128 -26 -211t-86 -124t-169 -46q37 -99 37 -220q0 -155 -62 -274.5t-177 -188t-274 -68.5zM582 230q69 0 108 43.5
t55 111t16 137.5q0 69 -15 135t-54 108.5t-110 42.5t-110.5 -41.5t-55.5 -107t-16 -137.5q0 -68 15 -135.5t54.5 -112t112.5 -44.5z" />
    <glyph glyph-name="Uhorn" unicode="&#x1af;" horiz-adv-x="1766" 
d="M749 -20q-222 0 -353.5 74t-189.5 208.5t-58 316.5v867h346v-886q0 -156 74 -224.5t181 -68.5q72 0 130.5 30t92.5 94.5t34 168.5v886h345v-173q46 1 75 16t45 61t23 139h214q-2 -143 -33.5 -229.5t-108 -123.5t-215.5 -29v-532q0 -180 -58 -313.5t-190 -207.5t-354 -74z
" />
    <glyph glyph-name="uhorn" unicode="&#x1b0;" horiz-adv-x="1473" 
d="M493 -20q-67 0 -136 22t-127 64.5t-93.5 104t-35.5 141.5v722h341v-676q0 -58 40 -96.5t115 -38.5q72 0 114 37.5t42 99.5v674h338v-138q51 0 83 14t49.5 60t24.5 142h213q-1 -144 -33.5 -231.5t-112.5 -123t-224 -25.5v-732h-254l-40 209q-19 -97 -70 -146.5t-114.5 -66
t-119.5 -16.5z" />
    <glyph glyph-name="uni01D4" unicode="&#x1d4;" horiz-adv-x="1204" 
d="M493 -20q-67 0 -136 22t-127 64.5t-93.5 104t-35.5 141.5v722h341v-676q0 -58 40 -96.5t115 -38.5q72 0 114 37.5t42 99.5v674h338v-1034h-254l-40 209q-19 -97 -70 -146.5t-114.5 -66t-119.5 -16.5zM481 1155l-269 277h241l144 -157l128 157h253l-263 -277h-234z" />
    <glyph glyph-name="uni01EA" unicode="&#x1ea;" horiz-adv-x="1546" 
d="M793 -339q-104 0 -165.5 41.5t-61.5 125.5q0 52 36 98.5t151 86.5l235 -3q-107 -38 -145 -69t-38 -68q0 -30 15.5 -45t48.5 -15q44 0 78 14t67 33v-148q-29 -18 -89.5 -34.5t-131.5 -16.5zM775 -20q-210 0 -363.5 90.5t-237.5 256.5t-84 393q0 229 85 396t239.5 258.5
t360.5 91.5t358.5 -91.5t237 -258.5t84.5 -396q0 -227 -83 -393t-236 -256.5t-361 -90.5zM775 256q93 0 163 45.5t108.5 146.5t38.5 267q0 171 -39 275.5t-109 152t-162 47.5q-93 0 -163 -48t-109.5 -152.5t-39.5 -274.5q0 -166 39.5 -267t109.5 -146.5t163 -45.5z" />
    <glyph glyph-name="uni01EB" unicode="&#x1eb;" 
d="M577 -338q-104 0 -165.5 42t-61.5 125q0 53 36 99.5t152 85.5l234 -3q-107 -37 -144.5 -68.5t-37.5 -68.5q0 -30 15.5 -45t47.5 -15q45 0 79 14t66 33v-148q-28 -18 -88.5 -34.5t-132.5 -16.5zM580 -20q-156 0 -271 66.5t-178 186t-63 278.5q0 162 64.5 284.5t180 190.5
t269.5 68q157 0 271.5 -68.5t177 -191t62.5 -283.5q0 -155 -62 -274.5t-177 -188t-274 -68.5zM582 230q69 0 108 43.5t55 111t16 137.5q0 69 -15 135t-54 108.5t-110 42.5t-110.5 -41.5t-55.5 -107t-16 -137.5q0 -68 15 -135.5t54.5 -112t112.5 -44.5z" />
    <glyph glyph-name="Aringacute" unicode="&#x1fa;" horiz-adv-x="1467" 
d="M884 1880l-59 -144q54 -23 87 -71t33 -111q0 -89 -61.5 -144t-149.5 -55q-89 0 -150 56.5t-61 146.5q0 69 41 118.5t103 67.5l32 136h185zM732 1453q41 0 69 30.5t28 68.5q0 41 -28 68.5t-69 27.5q-38 0 -68.5 -27.5t-30.5 -68.5q0 -38 30.5 -68.5t68.5 -30.5zM43 0
l514 1446h353l515 -1446h-338l-107 308h-488l-109 -308h-340zM566 601h335l-167 518z" />
    <glyph glyph-name="aringacute" unicode="&#x1fb;" horiz-adv-x="1145" 
d="M738 1497l-60 -144q54 -23 87.5 -71t33.5 -111q0 -89 -61.5 -144t-149.5 -55q-89 0 -150 56.5t-61 146.5q0 69 40.5 118.5t103.5 67.5l31 136h186zM586 1070q40 0 68.5 30.5t28.5 68.5q0 41 -28.5 68.5t-68.5 27.5q-39 0 -69 -27.5t-30 -68.5q0 -38 30 -68.5t69 -30.5z
M428 -20q-98 0 -178.5 37.5t-127.5 109.5t-47 176q0 169 130 260t408 92l105 1v53q0 61 -34.5 91.5t-107.5 29.5q-52 -1 -105 -24.5t-75 -86.5h-279q6 117 69 191t168.5 109t236.5 35q170 0 269 -40.5t141.5 -113t42.5 -170.5v-730h-283l-29 171q-49 -109 -123 -150
t-181 -41zM545 199q34 0 65 12t55 33.5t38 47.5t15 56v141l-84 -1q-52 0 -107.5 -14t-93.5 -46.5t-38 -89.5q0 -65 45 -102t105 -37z" />
    <glyph glyph-name="AEacute" unicode="&#x1fc;" horiz-adv-x="2140" 
d="M0 0l762 1446h1262l-2 -280h-682v-300h581v-277h-581v-307h703v-282h-1092v309h-452l-158 -309h-341zM624 601h327v627zM1237 1567l206 291h342l-307 -291h-241z" />
    <glyph glyph-name="aeacute" unicode="&#x1fd;" horiz-adv-x="1826" 
d="M428 -20q-98 0 -178.5 37.5t-127.5 109.5t-47 176q0 169 130.5 260t408.5 92l105 1v53q0 62 -36.5 92t-106.5 29q-52 -1 -105 -25t-75 -86h-279q5 115 68.5 189t169 110t236.5 36q129 0 217.5 -27.5t139.5 -75.5q59 49 136 76t170 27q163 0 273 -68.5t166 -188t56 -273.5
v-85h-674q0 -71 23 -119.5t65 -73.5t98 -25q64 0 113 26.5t72 92.5h304q-17 -113 -89.5 -193.5t-176 -123.5t-215.5 -43q-142 0 -253.5 54.5t-179.5 152.5q-27 -65 -80 -112t-134 -71t-194 -24zM545 199q50 0 88.5 23t61 58.5t23.5 74.5v134l-84 -1q-51 0 -106.5 -14
t-94 -46.5t-38.5 -89.5q0 -65 45 -102t105 -37zM1074 635h359q0 51 -20.5 93.5t-60 67.5t-99.5 25q-53 0 -93.5 -26.5t-63 -69t-22.5 -90.5zM741 1155l206 291h342l-307 -291h-241z" />
    <glyph glyph-name="Oslashacute" unicode="&#x1fe;" horiz-adv-x="1575" 
d="M179 -28l-143 147l166 165q-51 87 -78.5 196.5t-27.5 238.5q0 229 84.5 396.5t238.5 259t361 91.5q137 0 249.5 -40t197.5 -116l164 162l139 -145l-174 -177q51 -86 78 -194.5t27 -235.5q0 -227 -83.5 -393t-236.5 -256.5t-361 -90.5q-135 0 -247 38.5t-197 109.5z
M780 250q111 0 173.5 68.5t81.5 217.5q10 67 11.5 143t-4.5 164l-474 -487q66 -106 212 -106zM514 589l478 489q-33 64 -85.5 93t-126.5 29q-116 0 -181 -80t-83 -253q-7 -64 -7.5 -133t5.5 -145zM656 1567l206 291h342l-307 -291h-241z" />
    <glyph glyph-name="oslashacute" unicode="&#x1ff;" horiz-adv-x="1247" 
d="M162 -16l-107 113l1015 951l104 -113zM643 -20q-156 0 -271 66.5t-178.5 186t-63.5 278.5q0 162 64.5 284.5t180.5 190.5t269 68q158 0 272.5 -68.5t176.5 -191t62 -283.5q0 -155 -61.5 -274.5t-176.5 -188t-274 -68.5zM644 230q70 0 109 43.5t55 111t16 137.5
q0 69 -15 135t-54 108.5t-111 42.5q-70 0 -109.5 -41.5t-56 -107t-16.5 -137.5q0 -68 15.5 -135.5t55 -112t111.5 -44.5zM494 1155l206 291h342l-307 -291h-241z" />
    <glyph glyph-name="uni0200" unicode="&#x200;" horiz-adv-x="1467" 
d="M43 0l514 1446h353l515 -1446h-338l-107 308h-488l-109 -308h-340zM566 601h335l-167 518zM417 1567l-321 291h311l251 -291h-241zM803 1567l-262 291h300l203 -291h-241z" />
    <glyph glyph-name="uni0201" unicode="&#x201;" horiz-adv-x="1145" 
d="M428 -20q-98 0 -178.5 37.5t-127.5 109.5t-47 176q0 169 130 260t408 92l105 1v53q0 61 -34.5 91.5t-107.5 29.5q-52 -1 -105 -24.5t-75 -86.5h-279q6 117 69 191t168.5 109t236.5 35q170 0 269 -40.5t141.5 -113t42.5 -170.5v-730h-283l-29 171q-49 -109 -123 -150
t-181 -41zM545 199q34 0 65 12t55 33.5t38 47.5t15 56v141l-84 -1q-52 0 -107.5 -14t-93.5 -46.5t-38 -89.5q0 -65 45 -102t105 -37zM278 1155l-321 291h311l251 -291h-241zM664 1155l-262 291h300l203 -291h-241z" />
    <glyph glyph-name="uni0202" unicode="&#x202;" horiz-adv-x="1467" 
d="M43 0l514 1446h353l515 -1446h-338l-107 308h-488l-109 -308h-340zM566 601h335l-167 518zM361 1580q19 91 73.5 151t132.5 90.5t166 30.5q89 0 167 -30.5t133 -91t73 -150.5h-206q-16 50 -59 82t-108 32t-107.5 -32t-57.5 -82h-207z" />
    <glyph glyph-name="uni0203" unicode="&#x203;" horiz-adv-x="1145" 
d="M428 -20q-98 0 -178.5 37.5t-127.5 109.5t-47 176q0 169 130 260t408 92l105 1v53q0 61 -34.5 91.5t-107.5 29.5q-52 -1 -105 -24.5t-75 -86.5h-279q6 117 69 191t168.5 109t236.5 35q170 0 269 -40.5t141.5 -113t42.5 -170.5v-730h-283l-29 171q-49 -109 -123 -150
t-181 -41zM545 199q34 0 65 12t55 33.5t38 47.5t15 56v141l-84 -1q-52 0 -107.5 -14t-93.5 -46.5t-38 -89.5q0 -65 45 -102t105 -37zM222 1168q19 91 73.5 151t132.5 90.5t166 30.5q89 0 167 -30.5t133 -91t73 -150.5h-206q-16 50 -59 82t-108 32t-107.5 -32t-57.5 -82h-207
z" />
    <glyph glyph-name="uni0204" unicode="&#x204;" horiz-adv-x="1282" 
d="M148 0v1446h1031l-2 -284h-686v-295h585v-278h-587v-302l696 -1v-286h-1037zM347 1567l-321 291h311l251 -291h-241zM733 1567l-262 291h300l203 -291h-241z" />
    <glyph glyph-name="uni0205" unicode="&#x205;" 
d="M604 -20q-157 0 -276.5 65t-186 183t-66.5 277q0 151 60.5 275.5t175.5 199t277 74.5q164 0 274 -68.5t165.5 -188t55.5 -273.5v-85h-673q-1 -71 22 -119.5t65 -73.5t98 -25q64 0 113.5 26.5t72.5 92.5h304q-17 -113 -89.5 -193.5t-176.5 -123.5t-215 -43zM409 635h358
q0 51 -20 93.5t-59.5 67.5t-99.5 25q-53 0 -93.5 -26.5t-63 -69t-22.5 -90.5zM272 1155l-321 291h311l251 -291h-241zM658 1155l-262 291h300l203 -291h-241z" />
    <glyph glyph-name="uni0206" unicode="&#x206;" horiz-adv-x="1282" 
d="M148 0v1446h1031l-2 -284h-686v-295h585v-278h-587v-302l696 -1v-286h-1037zM291 1580q19 91 73.5 151t132.5 90.5t166 30.5q89 0 167 -30.5t133 -91t73 -150.5h-206q-16 50 -59 82t-108 32t-107.5 -32t-57.5 -82h-207z" />
    <glyph glyph-name="uni0207" unicode="&#x207;" 
d="M604 -20q-157 0 -276.5 65t-186 183t-66.5 277q0 151 60.5 275.5t175.5 199t277 74.5q164 0 274 -68.5t165.5 -188t55.5 -273.5v-85h-673q-1 -71 22 -119.5t65 -73.5t98 -25q64 0 113.5 26.5t72.5 92.5h304q-17 -113 -89.5 -193.5t-176.5 -123.5t-215 -43zM409 635h358
q0 51 -20 93.5t-59.5 67.5t-99.5 25q-53 0 -93.5 -26.5t-63 -69t-22.5 -90.5zM217 1168q19 91 73.5 151t132.5 90.5t166 30.5q89 0 167 -30.5t133 -91t73 -150.5h-206q-16 50 -59 82t-108 32t-107.5 -32t-57.5 -82h-207z" />
    <glyph glyph-name="uni0208" unicode="&#x208;" horiz-adv-x="637" 
d="M148 0v1446h341v-1446h-341zM2 1567l-321 291h311l251 -291h-241zM388 1567l-262 291h300l203 -291h-241z" />
    <glyph glyph-name="uni0209" unicode="&#x209;" horiz-adv-x="550" 
d="M113 0v1034h325v-1034h-325zM-37 1155l-321 291h311l251 -291h-241zM349 1155l-262 291h300l203 -291h-241z" />
    <glyph glyph-name="uni020A" unicode="&#x20a;" horiz-adv-x="637" 
d="M148 0v1446h341v-1446h-341zM-53 1580q19 91 73.5 151t132.5 90.5t166 30.5q89 0 167 -30.5t133 -91t73 -150.5h-206q-16 50 -59 82t-108 32t-107.5 -32t-57.5 -82h-207z" />
    <glyph glyph-name="uni020B" unicode="&#x20b;" horiz-adv-x="750" 
d="M208 0v1034h325v-1034h-325zM2 1168q19 91 73.5 151t132.5 90.5t166 30.5q89 0 167 -30.5t133 -91t73 -150.5h-206q-16 50 -59 82t-108 32t-107.5 -32t-57.5 -82h-207z" />
    <glyph glyph-name="uni020C" unicode="&#x20c;" horiz-adv-x="1546" 
d="M775 -20q-210 0 -363.5 90.5t-237.5 256.5t-84 393q0 229 85 396t239.5 258.5t360.5 91.5t358.5 -91.5t237 -258.5t84.5 -396q0 -227 -83 -393t-236 -256.5t-361 -90.5zM775 256q93 0 163 45.5t108.5 146.5t38.5 267q0 171 -39 275.5t-109 152t-162 47.5q-93 0 -163 -48
t-109.5 -152.5t-39.5 -274.5q0 -166 39.5 -267t109.5 -146.5t163 -45.5zM456 1567l-321 291h311l251 -291h-241zM842 1567l-262 291h300l203 -291h-241z" />
    <glyph glyph-name="uni020D" unicode="&#x20d;" 
d="M580 -20q-156 0 -271 66.5t-178 186t-63 278.5q0 162 64.5 284.5t180 190.5t269.5 68q157 0 271.5 -68.5t177 -191t62.5 -283.5q0 -155 -62 -274.5t-177 -188t-274 -68.5zM582 230q69 0 108 43.5t55 111t16 137.5q0 69 -15 135t-54 108.5t-110 42.5t-110.5 -41.5
t-55.5 -107t-16 -137.5q0 -68 15 -135.5t54.5 -112t112.5 -44.5zM264 1155l-321 291h311l251 -291h-241zM650 1155l-262 291h300l203 -291h-241z" />
    <glyph glyph-name="uni020E" unicode="&#x20e;" horiz-adv-x="1546" 
d="M775 -20q-210 0 -363.5 90.5t-237.5 256.5t-84 393q0 229 85 396t239.5 258.5t360.5 91.5t358.5 -91.5t237 -258.5t84.5 -396q0 -227 -83 -393t-236 -256.5t-361 -90.5zM775 256q93 0 163 45.5t108.5 146.5t38.5 267q0 171 -39 275.5t-109 152t-162 47.5q-93 0 -163 -48
t-109.5 -152.5t-39.5 -274.5q0 -166 39.5 -267t109.5 -146.5t163 -45.5zM400 1580q19 91 73.5 151t132.5 90.5t166 30.5q89 0 167 -30.5t133 -91t73 -150.5h-206q-16 50 -59 82t-108 32t-107.5 -32t-57.5 -82h-207z" />
    <glyph glyph-name="uni020F" unicode="&#x20f;" 
d="M580 -20q-156 0 -271 66.5t-178 186t-63 278.5q0 162 64.5 284.5t180 190.5t269.5 68q157 0 271.5 -68.5t177 -191t62.5 -283.5q0 -155 -62 -274.5t-177 -188t-274 -68.5zM582 230q69 0 108 43.5t55 111t16 137.5q0 69 -15 135t-54 108.5t-110 42.5t-110.5 -41.5
t-55.5 -107t-16 -137.5q0 -68 15 -135.5t54.5 -112t112.5 -44.5zM208 1168q19 91 73.5 151t132.5 90.5t166 30.5q89 0 167 -30.5t133 -91t73 -150.5h-206q-16 50 -59 82t-108 32t-107.5 -32t-57.5 -82h-207z" />
    <glyph glyph-name="uni0210" unicode="&#x210;" horiz-adv-x="1409" 
d="M148 0v1446h633q181 0 293 -58.5t164 -160t52 -230.5q0 -113 -32 -191.5t-86.5 -132t-122.5 -90.5l261 -583h-350l-223 528h-248v-528h-341zM489 785h245q96 0 154.5 61t58.5 145q0 88 -60 144t-143 56h-255v-406zM372 1567l-321 291h311l251 -291h-241zM758 1567
l-262 291h300l203 -291h-241z" />
    <glyph glyph-name="uni0211" unicode="&#x211;" horiz-adv-x="844" 
d="M113 0v1034h328v-265q24 81 69.5 145.5t112.5 102t155 37.5q11 0 19.5 -0.5t10.5 -2.5v-323q-5 2 -12.5 3t-15.5 1q-98 10 -161.5 -3t-100 -42t-51 -69t-14.5 -87v-531h-340zM142 1155l-321 291h311l251 -291h-241zM528 1155l-262 291h300l203 -291h-241z" />
    <glyph glyph-name="uni0212" unicode="&#x212;" horiz-adv-x="1409" 
d="M148 0v1446h633q181 0 293 -58.5t164 -160t52 -230.5q0 -113 -32 -191.5t-86.5 -132t-122.5 -90.5l261 -583h-350l-223 528h-248v-528h-341zM489 785h245q96 0 154.5 61t58.5 145q0 88 -60 144t-143 56h-255v-406zM316 1580q19 91 73.5 151t132.5 90.5t166 30.5
q89 0 167 -30.5t133 -91t73 -150.5h-206q-16 50 -59 82t-108 32t-107.5 -32t-57.5 -82h-207z" />
    <glyph glyph-name="uni0213" unicode="&#x213;" horiz-adv-x="844" 
d="M113 0v1034h328v-265q24 81 69.5 145.5t112.5 102t155 37.5q11 0 19.5 -0.5t10.5 -2.5v-323q-5 2 -12.5 3t-15.5 1q-98 10 -161.5 -3t-100 -42t-51 -69t-14.5 -87v-531h-340zM87 1134q19 91 73.5 151t132.5 90.5t166 30.5q89 0 167 -30.5t133 -91t73 -150.5h-206
q-16 50 -59 82t-108 32t-107.5 -32t-57.5 -82h-207z" />
    <glyph glyph-name="uni0214" unicode="&#x214;" horiz-adv-x="1470" 
d="M749 -20q-222 0 -353.5 74t-189.5 208.5t-58 316.5v867h346v-886q0 -156 74 -224.5t181 -68.5q72 0 130.5 30t92.5 94.5t34 168.5v886h345v-871q0 -180 -58 -313.5t-190 -207.5t-354 -74zM432 1567l-321 291h311l251 -291h-241zM818 1567l-262 291h300l203 -291h-241z
" />
    <glyph glyph-name="uni0215" unicode="&#x215;" horiz-adv-x="1204" 
d="M493 -20q-67 0 -136 22t-127 64.5t-93.5 104t-35.5 141.5v722h341v-676q0 -58 40 -96.5t115 -38.5q72 0 114 37.5t42 99.5v674h338v-1034h-254l-40 209q-19 -97 -70 -146.5t-114.5 -66t-119.5 -16.5zM281 1155l-321 291h311l251 -291h-241zM667 1155l-262 291h300
l203 -291h-241z" />
    <glyph glyph-name="uni0216" unicode="&#x216;" horiz-adv-x="1470" 
d="M749 -20q-222 0 -353.5 74t-189.5 208.5t-58 316.5v867h346v-886q0 -156 74 -224.5t181 -68.5q72 0 130.5 30t92.5 94.5t34 168.5v886h345v-871q0 -180 -58 -313.5t-190 -207.5t-354 -74zM377 1580q19 91 73.5 151t132.5 90.5t166 30.5q89 0 167 -30.5t133 -91t73 -150.5
h-206q-16 50 -59 82t-108 32t-107.5 -32t-57.5 -82h-207z" />
    <glyph glyph-name="uni0217" unicode="&#x217;" horiz-adv-x="1204" 
d="M493 -20q-67 0 -136 22t-127 64.5t-93.5 104t-35.5 141.5v722h341v-676q0 -58 40 -96.5t115 -38.5q72 0 114 37.5t42 99.5v674h338v-1034h-254l-40 209q-19 -97 -70 -146.5t-114.5 -66t-119.5 -16.5zM225 1168q19 91 73.5 151t132.5 90.5t166 30.5q89 0 167 -30.5
t133 -91t73 -150.5h-206q-16 50 -59 82t-108 32t-107.5 -32t-57.5 -82h-207z" />
    <glyph glyph-name="uni0218" unicode="&#x218;" horiz-adv-x="1404" 
d="M715 -20q-110 0 -216 27.5t-194.5 83t-145.5 139.5t-67 197h348q13 -59 51 -99.5t100 -62t144 -21.5q58 0 113 15.5t91 49.5t36 90q0 68 -53 98.5t-135 47.5l-259 52q-122 24 -210.5 76t-136 137t-47.5 205q0 141 78 241.5t211.5 154t300.5 53.5q184 0 313 -58
t197 -159.5t71 -229.5h-340q-6 65 -39 104.5t-87 58.5t-125 19q-119 0 -171 -46t-52 -102t41 -92t136 -54l233 -45q146 -25 237.5 -84.5t135 -146t43.5 -195.5q0 -136 -78.5 -238t-213.5 -159t-310 -57zM558 -468l95 161l-88 12v203h276v-168l-168 -208h-115z" />
    <glyph glyph-name="uni0219" unicode="&#x219;" horiz-adv-x="1073" 
d="M549 -20q-108 0 -211 36t-176 115t-94 206h292q13 -53 47 -81t72.5 -38t67.5 -10q74 0 120 21t46 64q0 36 -28.5 56.5t-99.5 32.5l-167 31q-143 27 -230 99.5t-88 205.5q-1 95 51 171t153 120.5t247 44.5q202 0 321 -88t120 -243h-280q-11 53 -56.5 80.5t-108.5 27.5
q-64 0 -107.5 -21.5t-43.5 -64.5q0 -33 38 -53t121 -36l151 -31q93 -23 151 -61.5t89.5 -83.5t43 -89.5t11.5 -78.5q0 -107 -58.5 -181t-161 -112.5t-232.5 -38.5zM399 -468l95 161l-88 12v203h276v-168l-168 -208h-115z" />
    <glyph glyph-name="uni021A" unicode="&#x21a;" horiz-adv-x="1253" 
d="M457 0v1145h-423v301h1185v-301h-420v-1145h-342zM497 -467l95 161l-88 12v203h276v-168l-168 -208h-115z" />
    <glyph glyph-name="uni021B" unicode="&#x21b;" horiz-adv-x="857" 
d="M588 -13q-149 0 -230.5 37.5t-113 103t-31.5 148.5v525h-168v233h180l87 317h241v-315h227v-235h-227l1 -510q0 -31 9.5 -46t26.5 -20t41 -5h151v-205q-21 -9 -65 -18.5t-129 -9.5zM349 -453l95 161l-88 12v203h276v-168l-168 -208h-115z" />
    <glyph glyph-name="uni0237" unicode="&#x237;" horiz-adv-x="599" 
d="M107 -332q-79 0 -105.5 15t-26.5 17l-1 227l69 9q59 10 81.5 33.5t22.5 63.5v1001h340v-1002q0 -181 -92 -272.5t-288 -91.5z" />
    <glyph glyph-name="uni0259" unicode="&#x259;" 
d="M573 -20q-164 0 -274 68.5t-165.5 188t-55.5 273.5v85h673q1 71 -22 119.5t-65 73.5t-98 25q-64 0 -113.5 -26.5t-72.5 -92.5h-304q17 113 89.5 193.5t177 123.5t214.5 43q158 0 277.5 -65t186 -183t66.5 -277q0 -151 -61 -275.5t-176 -199t-277 -74.5zM573 213
q54 0 94 26.5t63 69t22 90.5h-358q0 -51 20 -93t60 -67.5t99 -25.5z" />
    <glyph glyph-name="uni02BB" unicode="&#x2bb;" horiz-adv-x="542" 
d="M100 871v273q0 84 42.5 160t116 117.5t166.5 23.5v-93l-26 -3q-44 -6 -86.5 -42.5t-42.5 -93.5v-19l155 -16v-307h-325z" />
    <glyph glyph-name="uni02BC" unicode="&#x2bc;" horiz-adv-x="542" 
d="M100 876v93l25 3q45 7 87.5 43t42.5 92v20l-155 15v308h325v-273q0 -84 -43 -160t-116.5 -117.5t-165.5 -23.5z" />
    <glyph glyph-name="circumflex" unicode="&#x2c6;" horiz-adv-x="807" 
d="M21 1155l270 275h232l263 -275h-253l-128 144l-144 -144h-240z" />
    <glyph glyph-name="caron" unicode="&#x2c7;" horiz-adv-x="829" 
d="M289 1155l-269 277h241l144 -157l128 157h253l-263 -277h-234z" />
    <glyph glyph-name="breve" unicode="&#x2d8;" horiz-adv-x="815" 
d="M407 1156q-88 0 -166 30t-132.5 91t-73.5 151h208q14 -50 56.5 -82t107.5 -32t108 32t59 82h206q-18 -90 -73 -150.5t-132.5 -91t-167.5 -30.5z" />
    <glyph glyph-name="dotaccent" unicode="&#x2d9;" horiz-adv-x="340" 
d="M10 1182v264h320v-264h-320z" />
    <glyph glyph-name="ring" unicode="&#x2da;" horiz-adv-x="537" 
d="M261 1108q-94 0 -158.5 66t-64.5 161q0 89 65.5 152t157.5 63q62 0 112.5 -29.5t80.5 -79.5t30 -110q0 -94 -65 -158.5t-158 -64.5zM259 1230q40 0 67.5 30t27.5 69q0 41 -27.5 68t-67.5 27t-69.5 -27t-29.5 -68q0 -39 29.5 -69t69.5 -30z" />
    <glyph glyph-name="ogonek" unicode="&#x2db;" horiz-adv-x="540" 
d="M265 -338q-104 0 -165.5 41.5t-61.5 125.5q0 52 36 98.5t152 86.5l234 -3q-107 -38 -144.5 -69t-37.5 -68q0 -30 15.5 -45t47.5 -15q45 0 79 14t66 33v-148q-28 -18 -89 -34.5t-132 -16.5z" />
    <glyph glyph-name="tilde" unicode="&#x2dc;" horiz-adv-x="895" 
d="M128 1178l-50 172q38 41 85 70.5t120 29.5q59 0 112 -16t102.5 -32.5t94.5 -16.5q56 0 101 25.5t77 50.5l38 -197q-33 -28 -89 -51.5t-125 -23.5q-57 0 -105.5 14.5t-95.5 28.5t-101 14q-50 0 -85.5 -15.5t-78.5 -52.5z" />
    <glyph glyph-name="hungarumlaut" unicode="&#x2dd;" horiz-adv-x="969" 
d="M397 1155l251 291h311l-321 -291h-241zM10 1155l204 291h300l-263 -291h-241z" />
    <glyph glyph-name="gravecomb" unicode="&#x300;" horiz-adv-x="0" 
d="M318 1155l-307 291h342l206 -291h-241z" />
    <glyph glyph-name="acutecomb" unicode="&#x301;" horiz-adv-x="0" 
d="M10 1155l206 291h342l-307 -291h-241z" />
    <glyph glyph-name="uni0302" unicode="&#x302;" horiz-adv-x="0" 
d="M21 1155l270 275h232l263 -275h-253l-128 144l-144 -144h-240z" />
    <glyph glyph-name="tildecomb" unicode="&#x303;" horiz-adv-x="0" 
d="M128 1178l-50 172q38 41 85 70.5t120 29.5q59 0 112 -16t102.5 -32.5t94.5 -16.5q56 0 101 25.5t77 50.5l38 -197q-33 -28 -89 -51.5t-125 -23.5q-57 0 -105.5 14.5t-95.5 28.5t-101 14q-50 0 -85.5 -15.5t-78.5 -52.5z" />
    <glyph glyph-name="uni0304" unicode="&#x304;" horiz-adv-x="0" 
d="M38 1192v212h752v-212h-752z" />
    <glyph glyph-name="uni0306" unicode="&#x306;" horiz-adv-x="0" 
d="M407 1156q-88 0 -166 30t-132.5 91t-73.5 151h208q14 -50 56.5 -82t107.5 -32t108 32t59 82h206q-18 -90 -73 -150.5t-132.5 -91t-167.5 -30.5z" />
    <glyph glyph-name="uni0307" unicode="&#x307;" horiz-adv-x="0" 
d="M10 1182v264h320v-264h-320z" />
    <glyph glyph-name="uni0308" unicode="&#x308;" horiz-adv-x="0" 
d="M511 1182l3 264h316l-3 -264h-316zM10 1182l3 264h316l-3 -264h-316z" />
    <glyph glyph-name="hookabovecomb" unicode="&#x309;" horiz-adv-x="0" 
d="M667 1158l-75 119q37 24 49.5 56t-8.5 66q-17 29 -54.5 31.5t-71.5 -19.5l-76 116q95 61 188.5 45t140.5 -90q57 -90 35.5 -175.5t-128.5 -148.5z" />
    <glyph glyph-name="uni030A" unicode="&#x30a;" horiz-adv-x="0" 
d="M261 1108q-94 0 -158.5 66t-64.5 161q0 89 65.5 152t157.5 63q62 0 112.5 -29.5t80.5 -79.5t30 -110q0 -94 -65 -158.5t-158 -64.5zM259 1230q40 0 67.5 30t27.5 69q0 41 -27.5 68t-67.5 27t-69.5 -27t-29.5 -68q0 -39 29.5 -69t69.5 -30z" />
    <glyph glyph-name="uni030B" unicode="&#x30b;" horiz-adv-x="0" 
d="M397 1155l251 291h311l-321 -291h-241zM10 1155l204 291h300l-263 -291h-241z" />
    <glyph glyph-name="uni030C" unicode="&#x30c;" horiz-adv-x="0" 
d="M289 1155l-269 277h241l144 -157l128 157h253l-263 -277h-234z" />
    <glyph glyph-name="uni030F" unicode="&#x30f;" horiz-adv-x="0" 
d="M331 1155l-321 291h311l251 -291h-241zM717 1155l-262 291h300l203 -291h-241z" />
    <glyph glyph-name="uni0311" unicode="&#x311;" horiz-adv-x="0" 
d="M25 1168q19 91 73.5 151t132.5 90.5t166 30.5q89 0 167 -30.5t133 -91t73 -150.5h-206q-16 50 -59 82t-108 32t-107.5 -32t-57.5 -82h-207z" />
    <glyph glyph-name="uni0312" unicode="&#x312;" horiz-adv-x="0" 
d="M110 1155v178l162 210h118l-94 -167l88 -12v-209h-274z" />
    <glyph glyph-name="uni031B" unicode="&#x31b;" horiz-adv-x="0" 
d="M0 896v163q51 -1 87.5 1t60.5 20.5t38 63t20 128.5h214q-2 -153 -38.5 -241.5t-127 -121t-254.5 -13.5z" />
    <glyph glyph-name="dotbelowcomb" unicode="&#x323;" horiz-adv-x="0" 
d="M10 -415v264h320v-264h-320z" />
    <glyph glyph-name="uni0326" unicode="&#x326;" horiz-adv-x="0" 
d="M8 -468l95 161l-88 12v203h276v-168l-168 -208h-115z" />
    <glyph glyph-name="uni0327" unicode="&#x327;" horiz-adv-x="0" 
d="M281 -432q-66 0 -129.5 12t-118.5 44l44 109q33 -19 76 -35t86 -16q44 0 70 15t26 42q0 38 -38.5 58t-135.5 21q-14 0 -19 3.5t1 17.5l74 171h143l-43 -116q79 0 125.5 -25t67 -61.5t20.5 -72.5q0 -52 -34.5 -89t-91.5 -57.5t-123 -20.5z" />
    <glyph glyph-name="uni0328" unicode="&#x328;" horiz-adv-x="0" 
d="M265 -338q-104 0 -165.5 41.5t-61.5 125.5q0 52 36 98.5t152 86.5l234 -3q-107 -38 -144.5 -69t-37.5 -68q0 -30 15.5 -45t47.5 -15q45 0 79 14t66 33v-148q-28 -18 -89 -34.5t-132 -16.5z" />
    <glyph glyph-name="pi" unicode="&#x3c0;" horiz-adv-x="1364" 
d="M102 0q22 84 41.5 185.5t35 208t24.5 206.5t9 181q0 20 -17 20h-152v233h1261v-233h-173v-801h-326v801h-266q0 -86 -9.5 -194.5t-25.5 -220.5t-37.5 -213t-45.5 -173h-319z" />
    <glyph glyph-name="uni1E0C" unicode="&#x1e0c;" horiz-adv-x="1464" 
d="M148 0v1446h71.5t134 0.5t150.5 0t121 -2.5q262 -8 427.5 -98.5t243 -248t77.5 -368.5q0 -218 -81.5 -382t-248.5 -255.5t-425 -91.5h-470zM490 271h138q99 0 188 45t145.5 146t56.5 271q0 151 -48 249t-135 145.5t-205 47.5h-140v-904zM547 -415v264h320v-264h-320z" />
    <glyph glyph-name="uni1E0D" unicode="&#x1e0d;" horiz-adv-x="1227" 
d="M510 -20q-211 0 -326.5 146t-115.5 397q0 163 47.5 282t138.5 184t221 65q47 0 91 -10t83.5 -28.5t71 -46t52.5 -64.5v581h342v-1486h-243l-40 212q-16 -48 -42.5 -90.5t-65 -74t-91.5 -49.5t-123 -18zM588 221q89 0 137 68t48 236q0 99 -21.5 162.5t-62 93.5t-100.5 30
q-81 0 -135.5 -64.5t-54.5 -221.5q0 -162 53 -233t136 -71zM385 -415v264h320v-264h-320z" />
    <glyph glyph-name="uni1E24" unicode="&#x1e24;" horiz-adv-x="1543" 
d="M148 0v1446h341v-564h566v564h340v-1446h-340v601h-566v-601h-341zM616 -415v264h320v-264h-320z" />
    <glyph glyph-name="uni1E25" unicode="&#x1e25;" horiz-adv-x="1199" 
d="M113 0v1486h339v-600q24 33 59.5 68t89.5 59t136 24q98 0 180 -39t131.5 -114t49.5 -184v-700h-341v653q0 61 -45 92.5t-103 31.5q-38 0 -74 -15t-59 -44t-23 -71v-647h-340zM450 -415v264h320v-264h-320z" />
    <glyph glyph-name="uni1E44" unicode="&#x1e44;" horiz-adv-x="1590" 
d="M148 0v1446h341l612 -882v882h340v-1446h-307l-645 928v-928h-341zM633 1594v264h320v-264h-320z" />
    <glyph glyph-name="uni1E45" unicode="&#x1e45;" horiz-adv-x="1200" 
d="M113 0v1034h336v-145q22 36 58.5 71t93 58t137.5 23q93 0 175.5 -36t134.5 -114.5t52 -205.5v-685h-342v640q0 68 -44 102.5t-101 34.5q-38 0 -75 -14.5t-61 -43t-24 -71.5v-648h-340zM447 1182v264h320v-264h-320z" />
    <glyph glyph-name="uni1E5A" unicode="&#x1e5a;" horiz-adv-x="1409" 
d="M148 0v1446h633q181 0 293 -58.5t164 -160t52 -230.5q0 -113 -32 -191.5t-86.5 -132t-122.5 -90.5l261 -583h-350l-223 528h-248v-528h-341zM489 785h245q96 0 154.5 61t58.5 145q0 88 -60 144t-143 56h-255v-406zM549 -415v264h320v-264h-320z" />
    <glyph glyph-name="uni1E5B" unicode="&#x1e5b;" horiz-adv-x="844" 
d="M113 0v1034h328v-265q24 81 69.5 145.5t112.5 102t155 37.5q11 0 19.5 -0.5t10.5 -2.5v-323q-5 2 -12.5 3t-15.5 1q-98 10 -161.5 -3t-100 -42t-51 -69t-14.5 -87v-531h-340zM122 -415v264h320v-264h-320z" />
    <glyph glyph-name="uni1E62" unicode="&#x1e62;" horiz-adv-x="1404" 
d="M715 -20q-110 0 -216 27.5t-194.5 83t-145.5 139.5t-67 197h348q13 -59 51 -99.5t100 -62t144 -21.5q58 0 113 15.5t91 49.5t36 90q0 68 -53 98.5t-135 47.5l-259 52q-122 24 -210.5 76t-136 137t-47.5 205q0 141 78 241.5t211.5 154t300.5 53.5q184 0 313 -58
t197 -159.5t71 -229.5h-340q-6 65 -39 104.5t-87 58.5t-125 19q-119 0 -171 -46t-52 -102t41 -92t136 -54l233 -45q146 -25 237.5 -84.5t135 -146t43.5 -195.5q0 -136 -78.5 -238t-213.5 -159t-310 -57zM546 -415v264h320v-264h-320z" />
    <glyph glyph-name="uni1E63" unicode="&#x1e63;" horiz-adv-x="1073" 
d="M549 -20q-108 0 -211 36t-176 115t-94 206h292q13 -53 47 -81t72.5 -38t67.5 -10q74 0 120 21t46 64q0 36 -28.5 56.5t-99.5 32.5l-167 31q-143 27 -230 99.5t-88 205.5q-1 95 51 171t153 120.5t247 44.5q202 0 321 -88t120 -243h-280q-11 53 -56.5 80.5t-108.5 27.5
q-64 0 -107.5 -21.5t-43.5 -64.5q0 -33 38 -53t121 -36l151 -31q93 -23 151 -61.5t89.5 -83.5t43 -89.5t11.5 -78.5q0 -107 -58.5 -181t-161 -112.5t-232.5 -38.5zM387 -415v264h320v-264h-320z" />
    <glyph glyph-name="uni1E6C" unicode="&#x1e6c;" horiz-adv-x="1253" 
d="M457 0v1145h-423v301h1185v-301h-420v-1145h-342zM485 -414v264h320v-264h-320z" />
    <glyph glyph-name="uni1E6D" unicode="&#x1e6d;" horiz-adv-x="857" 
d="M588 -13q-149 0 -230.5 37.5t-113 103t-31.5 148.5v525h-168v233h180l87 317h241v-315h227v-235h-227l1 -510q0 -31 9.5 -46t26.5 -20t41 -5h151v-205q-21 -9 -65 -18.5t-129 -9.5zM337 -400v264h320v-264h-320z" />
    <glyph glyph-name="Wgrave" unicode="&#x1e80;" horiz-adv-x="1950" 
d="M465 0l-431 1446h331l247 -865l242 865h242l248 -865l242 865h331l-430 -1446h-262l-250 866l-252 -866h-258zM848 1567l-307 291h342l206 -291h-241z" />
    <glyph glyph-name="wgrave" unicode="&#x1e81;" horiz-adv-x="1585" 
d="M361 0l-342 1034h299l179 -572h4l171 572h239l170 -573h4l176 573h306l-352 -1034h-256l-174 564l-177 -564h-247zM674 1155l-307 291h342l206 -291h-241z" />
    <glyph glyph-name="Wacute" unicode="&#x1e82;" horiz-adv-x="1950" 
d="M465 0l-431 1446h331l247 -865l242 865h242l248 -865l242 865h331l-430 -1446h-262l-250 866l-252 -866h-258zM853 1567l206 291h342l-307 -291h-241z" />
    <glyph glyph-name="wacute" unicode="&#x1e83;" horiz-adv-x="1585" 
d="M361 0l-342 1034h299l179 -572h4l171 572h239l170 -573h4l176 573h306l-352 -1034h-256l-174 564l-177 -564h-247zM679 1155l206 291h342l-307 -291h-241z" />
    <glyph glyph-name="Wdieresis" unicode="&#x1e84;" horiz-adv-x="1950" 
d="M465 0l-431 1446h331l247 -865l242 865h242l248 -865l242 865h331l-430 -1446h-262l-250 866l-252 -866h-258zM1066 1594l3 264h316l-3 -264h-316zM565 1594l3 264h316l-3 -264h-316z" />
    <glyph glyph-name="wdieresis" unicode="&#x1e85;" horiz-adv-x="1585" 
d="M361 0l-342 1034h299l179 -572h4l171 572h239l170 -573h4l176 573h306l-352 -1034h-256l-174 564l-177 -564h-247zM892 1182l3 264h316l-3 -264h-316zM391 1182l3 264h316l-3 -264h-316z" />
    <glyph glyph-name="uni1E92" unicode="&#x1e92;" horiz-adv-x="1369" 
d="M99 0v160l707 1004h-651v282h1140v-153l-720 -1007h709v-286h-1185zM546 -415v264h320v-264h-320z" />
    <glyph glyph-name="uni1E93" unicode="&#x1e93;" horiz-adv-x="1007" 
d="M56 0v184l478 615h-451v235h865v-184l-478 -615h481v-235h-895zM346 -415v264h320v-264h-320z" />
    <glyph glyph-name="uni1EA0" unicode="&#x1ea0;" horiz-adv-x="1467" 
d="M43 0l514 1446h353l515 -1446h-338l-107 308h-488l-109 -308h-340zM566 601h335l-167 518zM575 -415v264h320v-264h-320z" />
    <glyph glyph-name="uni1EA1" unicode="&#x1ea1;" horiz-adv-x="1145" 
d="M428 -20q-98 0 -178.5 37.5t-127.5 109.5t-47 176q0 169 130 260t408 92l105 1v53q0 61 -34.5 91.5t-107.5 29.5q-52 -1 -105 -24.5t-75 -86.5h-279q6 117 69 191t168.5 109t236.5 35q170 0 269 -40.5t141.5 -113t42.5 -170.5v-730h-283l-29 171q-49 -109 -123 -150
t-181 -41zM545 199q34 0 65 12t55 33.5t38 47.5t15 56v141l-84 -1q-52 0 -107.5 -14t-93.5 -46.5t-38 -89.5q0 -65 45 -102t105 -37zM430 -415v264h320v-264h-320z" />
    <glyph glyph-name="uni1EA2" unicode="&#x1ea2;" horiz-adv-x="1467" 
d="M43 0l514 1446h353l515 -1446h-338l-107 308h-488l-109 -308h-340zM566 601h335l-167 518zM828 1566l-75 119q37 24 49.5 56t-8.5 66q-17 29 -54.5 31.5t-71.5 -19.5l-76 116q95 61 188.5 45t140.5 -90q57 -90 35.5 -175.5t-128.5 -148.5z" />
    <glyph glyph-name="uni1EA3" unicode="&#x1ea3;" horiz-adv-x="1145" 
d="M428 -20q-98 0 -178.5 37.5t-127.5 109.5t-47 176q0 169 130 260t408 92l105 1v53q0 61 -34.5 91.5t-107.5 29.5q-52 -1 -105 -24.5t-75 -86.5h-279q6 117 69 191t168.5 109t236.5 35q170 0 269 -40.5t141.5 -113t42.5 -170.5v-730h-283l-29 171q-49 -109 -123 -150
t-181 -41zM545 199q34 0 65 12t55 33.5t38 47.5t15 56v141l-84 -1q-52 0 -107.5 -14t-93.5 -46.5t-38 -89.5q0 -65 45 -102t105 -37zM689 1154l-75 119q37 24 49.5 56t-8.5 66q-17 29 -54.5 31.5t-71.5 -19.5l-76 116q95 61 188.5 45t140.5 -90q57 -90 35.5 -175.5
t-128.5 -148.5z" />
    <glyph glyph-name="uni1EA4" unicode="&#x1ea4;" horiz-adv-x="1467" 
d="M43 0l514 1446h353l515 -1446h-338l-107 308h-488l-109 -308h-340zM566 601h335l-167 518zM349 1567l270 275h232l263 -275h-253l-128 144l-144 -144h-240zM981 1821l154 269h249l-236 -269h-167z" />
    <glyph glyph-name="uni1EA5" unicode="&#x1ea5;" horiz-adv-x="1145" 
d="M428 -20q-98 0 -178.5 37.5t-127.5 109.5t-47 176q0 169 130 260t408 92l105 1v53q0 61 -34.5 91.5t-107.5 29.5q-52 -1 -105 -24.5t-75 -86.5h-279q6 117 69 191t168.5 109t236.5 35q170 0 269 -40.5t141.5 -113t42.5 -170.5v-730h-283l-29 171q-49 -109 -123 -150
t-181 -41zM545 199q34 0 65 12t55 33.5t38 47.5t15 56v141l-84 -1q-52 0 -107.5 -14t-93.5 -46.5t-38 -89.5q0 -65 45 -102t105 -37zM210 1155l270 275h232l263 -275h-253l-128 144l-144 -144h-240zM842 1409l154 269h249l-236 -269h-167z" />
    <glyph glyph-name="uni1EA6" unicode="&#x1ea6;" horiz-adv-x="1467" 
d="M43 0l514 1446h353l515 -1446h-338l-107 308h-488l-109 -308h-340zM566 601h335l-167 518zM349 1567l270 275h232l263 -275h-253l-128 144l-144 -144h-240zM1063 1819l-234 270h250l157 -270h-173z" />
    <glyph glyph-name="uni1EA7" unicode="&#x1ea7;" horiz-adv-x="1145" 
d="M428 -20q-98 0 -178.5 37.5t-127.5 109.5t-47 176q0 169 130 260t408 92l105 1v53q0 61 -34.5 91.5t-107.5 29.5q-52 -1 -105 -24.5t-75 -86.5h-279q6 117 69 191t168.5 109t236.5 35q170 0 269 -40.5t141.5 -113t42.5 -170.5v-730h-283l-29 171q-49 -109 -123 -150
t-181 -41zM545 199q34 0 65 12t55 33.5t38 47.5t15 56v141l-84 -1q-52 0 -107.5 -14t-93.5 -46.5t-38 -89.5q0 -65 45 -102t105 -37zM210 1155l270 275h232l263 -275h-253l-128 144l-144 -144h-240zM924 1407l-234 270h250l157 -270h-173z" />
    <glyph glyph-name="uni1EA8" unicode="&#x1ea8;" horiz-adv-x="1467" 
d="M43 0l514 1446h353l515 -1446h-338l-107 308h-488l-109 -308h-340zM566 601h335l-167 518zM357 1567l270 275h232l263 -275h-253l-128 144l-144 -144h-240zM1062 1776l-76 119q38 24 50 56t-9 66q-17 28 -54.5 31t-71.5 -19l-75 116q95 61 188 45t141 -90
q56 -90 35 -175.5t-128 -148.5z" />
    <glyph glyph-name="uni1EA9" unicode="&#x1ea9;" horiz-adv-x="1145" 
d="M428 -20q-98 0 -178.5 37.5t-127.5 109.5t-47 176q0 169 130 260t408 92l105 1v53q0 61 -34.5 91.5t-107.5 29.5q-52 -1 -105 -24.5t-75 -86.5h-279q6 117 69 191t168.5 109t236.5 35q170 0 269 -40.5t141.5 -113t42.5 -170.5v-730h-283l-29 171q-49 -109 -123 -150
t-181 -41zM545 199q34 0 65 12t55 33.5t38 47.5t15 56v141l-84 -1q-52 0 -107.5 -14t-93.5 -46.5t-38 -89.5q0 -65 45 -102t105 -37zM218 1155l270 275h232l263 -275h-253l-128 144l-144 -144h-240zM923 1364l-76 119q38 24 50 56t-9 66q-17 28 -54.5 31t-71.5 -19l-75 116
q95 61 188 45t141 -90q56 -90 35 -175.5t-128 -148.5z" />
    <glyph glyph-name="uni1EAA" unicode="&#x1eaa;" horiz-adv-x="1467" 
d="M43 0l514 1446h353l515 -1446h-338l-107 308h-488l-109 -308h-340zM566 601h335l-167 518zM352 1567l270 275h232l263 -275h-253l-128 144l-144 -144h-240zM417 1927l-50 172q38 41 84.5 70t119.5 29q59 0 112.5 -15.5t102.5 -32t95 -16.5q56 0 101 25.5t77 50.5l38 -197
q-33 -28 -89 -51.5t-126 -23.5q-57 0 -105 14.5t-95 28.5t-101 14q-50 0 -85.5 -15.5t-78.5 -52.5z" />
    <glyph glyph-name="uni1EAB" unicode="&#x1eab;" horiz-adv-x="1145" 
d="M428 -20q-98 0 -178.5 37.5t-127.5 109.5t-47 176q0 169 130 260t408 92l105 1v53q0 61 -34.5 91.5t-107.5 29.5q-52 -1 -105 -24.5t-75 -86.5h-279q6 117 69 191t168.5 109t236.5 35q170 0 269 -40.5t141.5 -113t42.5 -170.5v-730h-283l-29 171q-49 -109 -123 -150
t-181 -41zM545 199q34 0 65 12t55 33.5t38 47.5t15 56v141l-84 -1q-52 0 -107.5 -14t-93.5 -46.5t-38 -89.5q0 -65 45 -102t105 -37zM213 1155l270 275h232l263 -275h-253l-128 144l-144 -144h-240zM278 1515l-50 172q38 41 84.5 70t119.5 29q59 0 112.5 -15.5t102.5 -32
t95 -16.5q56 0 101 25.5t77 50.5l38 -197q-33 -28 -89 -51.5t-126 -23.5q-57 0 -105 14.5t-95 28.5t-101 14q-50 0 -85.5 -15.5t-78.5 -52.5z" />
    <glyph glyph-name="uni1EAC" unicode="&#x1eac;" horiz-adv-x="1467" 
d="M43 0l514 1446h353l515 -1446h-338l-107 308h-488l-109 -308h-340zM566 601h335l-167 518zM575 -415v264h320v-264h-320zM349 1567l270 275h232l263 -275h-253l-128 144l-144 -144h-240z" />
    <glyph glyph-name="uni1EAD" unicode="&#x1ead;" horiz-adv-x="1145" 
d="M428 -20q-98 0 -178.5 37.5t-127.5 109.5t-47 176q0 169 130 260t408 92l105 1v53q0 61 -34.5 91.5t-107.5 29.5q-52 -1 -105 -24.5t-75 -86.5h-279q6 117 69 191t168.5 109t236.5 35q170 0 269 -40.5t141.5 -113t42.5 -170.5v-730h-283l-29 171q-49 -109 -123 -150
t-181 -41zM545 199q34 0 65 12t55 33.5t38 47.5t15 56v141l-84 -1q-52 0 -107.5 -14t-93.5 -46.5t-38 -89.5q0 -65 45 -102t105 -37zM430 -415v264h320v-264h-320zM210 1155l270 275h232l263 -275h-253l-128 144l-144 -144h-240z" />
    <glyph glyph-name="uni1EAE" unicode="&#x1eae;" horiz-adv-x="1467" 
d="M43 0l514 1446h353l515 -1446h-338l-107 308h-488l-109 -308h-340zM566 601h335l-167 518zM735 1567q-88 0 -166 30t-132.5 91t-73.5 151h208q14 -50 56.5 -82t107.5 -32t108 32t59 82h206q-18 -90 -73 -150.5t-132.5 -91t-167.5 -30.5zM649 1911l154 270h249l-236 -270
h-167z" />
    <glyph glyph-name="uni1EAF" unicode="&#x1eaf;" horiz-adv-x="1145" 
d="M428 -20q-98 0 -178.5 37.5t-127.5 109.5t-47 176q0 169 130 260t408 92l105 1v53q0 61 -34.5 91.5t-107.5 29.5q-52 -1 -105 -24.5t-75 -86.5h-279q6 117 69 191t168.5 109t236.5 35q170 0 269 -40.5t141.5 -113t42.5 -170.5v-730h-283l-29 171q-49 -109 -123 -150
t-181 -41zM545 199q34 0 65 12t55 33.5t38 47.5t15 56v141l-84 -1q-52 0 -107.5 -14t-93.5 -46.5t-38 -89.5q0 -65 45 -102t105 -37zM596 1155q-88 0 -166 30t-132.5 91t-73.5 151h208q14 -50 56.5 -82t107.5 -32t108 32t59 82h206q-18 -90 -73 -150.5t-132.5 -91
t-167.5 -30.5zM510 1499l154 270h249l-236 -270h-167z" />
    <glyph glyph-name="uni1EB0" unicode="&#x1eb0;" horiz-adv-x="1467" 
d="M43 0l514 1446h353l515 -1446h-338l-107 308h-488l-109 -308h-340zM566 601h335l-167 518zM735 1567q-88 0 -166 30t-132.5 91t-73.5 151h208q14 -50 56.5 -82t107.5 -32t108 32t59 82h206q-18 -90 -73 -150.5t-132.5 -91t-167.5 -30.5zM661 1911l-234 269h250l157 -269
h-173z" />
    <glyph glyph-name="uni1EB1" unicode="&#x1eb1;" horiz-adv-x="1145" 
d="M428 -20q-98 0 -178.5 37.5t-127.5 109.5t-47 176q0 169 130 260t408 92l105 1v53q0 61 -34.5 91.5t-107.5 29.5q-52 -1 -105 -24.5t-75 -86.5h-279q6 117 69 191t168.5 109t236.5 35q170 0 269 -40.5t141.5 -113t42.5 -170.5v-730h-283l-29 171q-49 -109 -123 -150
t-181 -41zM545 199q34 0 65 12t55 33.5t38 47.5t15 56v141l-84 -1q-52 0 -107.5 -14t-93.5 -46.5t-38 -89.5q0 -65 45 -102t105 -37zM596 1155q-88 0 -166 30t-132.5 91t-73.5 151h208q14 -50 56.5 -82t107.5 -32t108 32t59 82h206q-18 -90 -73 -150.5t-132.5 -91
t-167.5 -30.5zM522 1499l-234 269h250l157 -269h-173z" />
    <glyph glyph-name="uni1EB2" unicode="&#x1eb2;" horiz-adv-x="1467" 
d="M43 0l514 1446h353l515 -1446h-338l-107 308h-488l-109 -308h-340zM566 601h335l-167 518zM735 1567q-88 0 -166 30t-132.5 91t-73.5 151h208q14 -50 56.5 -82t107.5 -32t108 32t59 82h206q-18 -90 -73 -150.5t-132.5 -91t-167.5 -30.5zM744 1818l-76 119q38 24 50 56
t-9 66q-17 28 -54.5 31t-71.5 -20l-75 116q75 48 153 48q116 0 176 -93q57 -90 35.5 -175t-128.5 -148z" />
    <glyph glyph-name="uni1EB3" unicode="&#x1eb3;" horiz-adv-x="1145" 
d="M428 -20q-98 0 -178.5 37.5t-127.5 109.5t-47 176q0 169 130 260t408 92l105 1v53q0 61 -34.5 91.5t-107.5 29.5q-52 -1 -105 -24.5t-75 -86.5h-279q6 117 69 191t168.5 109t236.5 35q170 0 269 -40.5t141.5 -113t42.5 -170.5v-730h-283l-29 171q-49 -109 -123 -150
t-181 -41zM545 199q34 0 65 12t55 33.5t38 47.5t15 56v141l-84 -1q-52 0 -107.5 -14t-93.5 -46.5t-38 -89.5q0 -65 45 -102t105 -37zM596 1155q-88 0 -166 30t-132.5 91t-73.5 151h208q14 -50 56.5 -82t107.5 -32t108 32t59 82h206q-18 -90 -73 -150.5t-132.5 -91
t-167.5 -30.5zM605 1406l-76 119q38 24 50 56t-9 66q-17 28 -54.5 31t-71.5 -20l-75 116q75 48 153 48q116 0 176 -93q57 -90 35.5 -175t-128.5 -148z" />
    <glyph glyph-name="uni1EB4" unicode="&#x1eb4;" horiz-adv-x="1467" 
d="M43 0l514 1446h353l515 -1446h-338l-107 308h-488l-109 -308h-340zM566 601h335l-167 518zM735 1567q-88 0 -166 30t-132.5 91t-73.5 151h208q14 -50 56.5 -82t107.5 -32t108 32t59 82h206q-18 -90 -73 -150.5t-132.5 -91t-167.5 -30.5zM414 1926l-50 172q38 41 84.5 70
t119.5 29q59 0 112.5 -15.5t102.5 -32t95 -16.5q56 0 101 25.5t77 50.5l38 -197q-33 -28 -89 -51.5t-126 -23.5q-57 0 -105 14.5t-95 28.5t-101 14q-50 0 -85.5 -15.5t-78.5 -52.5z" />
    <glyph glyph-name="uni1EB5" unicode="&#x1eb5;" horiz-adv-x="1145" 
d="M428 -20q-98 0 -178.5 37.5t-127.5 109.5t-47 176q0 169 130 260t408 92l105 1v53q0 61 -34.5 91.5t-107.5 29.5q-52 -1 -105 -24.5t-75 -86.5h-279q6 117 69 191t168.5 109t236.5 35q170 0 269 -40.5t141.5 -113t42.5 -170.5v-730h-283l-29 171q-49 -109 -123 -150
t-181 -41zM545 199q34 0 65 12t55 33.5t38 47.5t15 56v141l-84 -1q-52 0 -107.5 -14t-93.5 -46.5t-38 -89.5q0 -65 45 -102t105 -37zM596 1155q-88 0 -166 30t-132.5 91t-73.5 151h208q14 -50 56.5 -82t107.5 -32t108 32t59 82h206q-18 -90 -73 -150.5t-132.5 -91
t-167.5 -30.5zM275 1514l-50 172q38 41 84.5 70t119.5 29q59 0 112.5 -15.5t102.5 -32t95 -16.5q56 0 101 25.5t77 50.5l38 -197q-33 -28 -89 -51.5t-126 -23.5q-57 0 -105 14.5t-95 28.5t-101 14q-50 0 -85.5 -15.5t-78.5 -52.5z" />
    <glyph glyph-name="uni1EB6" unicode="&#x1eb6;" horiz-adv-x="1467" 
d="M43 0l514 1446h353l515 -1446h-338l-107 308h-488l-109 -308h-340zM566 601h335l-167 518zM575 -415v264h320v-264h-320zM734 1567q-88 0 -166 30t-132.5 91t-73.5 151h208q14 -50 56.5 -82t107.5 -32t108 32t59 82h206q-18 -90 -73 -150.5t-132.5 -91t-167.5 -30.5z" />
    <glyph glyph-name="uni1EB7" unicode="&#x1eb7;" horiz-adv-x="1145" 
d="M428 -20q-98 0 -178.5 37.5t-127.5 109.5t-47 176q0 169 130 260t408 92l105 1v53q0 61 -34.5 91.5t-107.5 29.5q-52 -1 -105 -24.5t-75 -86.5h-279q6 117 69 191t168.5 109t236.5 35q170 0 269 -40.5t141.5 -113t42.5 -170.5v-730h-283l-29 171q-49 -109 -123 -150
t-181 -41zM545 199q34 0 65 12t55 33.5t38 47.5t15 56v141l-84 -1q-52 0 -107.5 -14t-93.5 -46.5t-38 -89.5q0 -65 45 -102t105 -37zM430 -415v264h320v-264h-320zM595 1155q-88 0 -166 30t-132.5 91t-73.5 151h208q14 -50 56.5 -82t107.5 -32t108 32t59 82h206
q-18 -90 -73 -150.5t-132.5 -91t-167.5 -30.5z" />
    <glyph glyph-name="uni1EB8" unicode="&#x1eb8;" horiz-adv-x="1282" 
d="M148 0v1446h1031l-2 -284h-686v-295h585v-278h-587v-302l696 -1v-286h-1037zM514 -415v264h320v-264h-320z" />
    <glyph glyph-name="uni1EB9" unicode="&#x1eb9;" 
d="M604 -20q-157 0 -276.5 65t-186 183t-66.5 277q0 151 60.5 275.5t175.5 199t277 74.5q164 0 274 -68.5t165.5 -188t55.5 -273.5v-85h-673q-1 -71 22 -119.5t65 -73.5t98 -25q64 0 113.5 26.5t72.5 92.5h304q-17 -113 -89.5 -193.5t-176.5 -123.5t-215 -43zM409 635h358
q0 51 -20 93.5t-59.5 67.5t-99.5 25q-53 0 -93.5 -26.5t-63 -69t-22.5 -90.5zM435 -415v264h320v-264h-320z" />
    <glyph glyph-name="uni1EBA" unicode="&#x1eba;" horiz-adv-x="1282" 
d="M148 0v1446h1031l-2 -284h-686v-295h585v-278h-587v-302l696 -1v-286h-1037zM758 1566l-75 119q37 24 49.5 56t-8.5 66q-17 29 -54.5 31.5t-71.5 -19.5l-76 116q95 61 188.5 45t140.5 -90q57 -90 35.5 -175.5t-128.5 -148.5z" />
    <glyph glyph-name="uni1EBB" unicode="&#x1ebb;" 
d="M604 -20q-157 0 -276.5 65t-186 183t-66.5 277q0 151 60.5 275.5t175.5 199t277 74.5q164 0 274 -68.5t165.5 -188t55.5 -273.5v-85h-673q-1 -71 22 -119.5t65 -73.5t98 -25q64 0 113.5 26.5t72.5 92.5h304q-17 -113 -89.5 -193.5t-176.5 -123.5t-215 -43zM409 635h358
q0 51 -20 93.5t-59.5 67.5t-99.5 25q-53 0 -93.5 -26.5t-63 -69t-22.5 -90.5zM683 1154l-75 119q37 24 49.5 56t-8.5 66q-17 29 -54.5 31.5t-71.5 -19.5l-76 116q95 61 188.5 45t140.5 -90q57 -90 35.5 -175.5t-128.5 -148.5z" />
    <glyph glyph-name="uni1EBC" unicode="&#x1ebc;" horiz-adv-x="1282" 
d="M148 0v1446h1031l-2 -284h-686v-295h585v-278h-587v-302l696 -1v-286h-1037zM355 1590l-50 172q38 41 85 70.5t120 29.5q59 0 112 -16t102.5 -32.5t94.5 -16.5q56 0 101 25.5t77 50.5l38 -197q-33 -28 -89 -51.5t-125 -23.5q-57 0 -105.5 14.5t-95.5 28.5t-101 14
q-50 0 -85.5 -15.5t-78.5 -52.5z" />
    <glyph glyph-name="uni1EBD" unicode="&#x1ebd;" 
d="M604 -20q-157 0 -276.5 65t-186 183t-66.5 277q0 151 60.5 275.5t175.5 199t277 74.5q164 0 274 -68.5t165.5 -188t55.5 -273.5v-85h-673q-1 -71 22 -119.5t65 -73.5t98 -25q64 0 113.5 26.5t72.5 92.5h304q-17 -113 -89.5 -193.5t-176.5 -123.5t-215 -43zM409 635h358
q0 51 -20 93.5t-59.5 67.5t-99.5 25q-53 0 -93.5 -26.5t-63 -69t-22.5 -90.5zM281 1178l-50 172q38 41 85 70.5t120 29.5q59 0 112 -16t102.5 -32.5t94.5 -16.5q56 0 101 25.5t77 50.5l38 -197q-33 -28 -89 -51.5t-125 -23.5q-57 0 -105.5 14.5t-95.5 28.5t-101 14
q-50 0 -85.5 -15.5t-78.5 -52.5z" />
    <glyph glyph-name="uni1EBE" unicode="&#x1ebe;" horiz-adv-x="1282" 
d="M148 0v1446h1031l-2 -284h-686v-295h585v-278h-587v-302l696 -1v-286h-1037zM279 1567l270 275h232l263 -275h-253l-128 144l-144 -144h-240zM911 1821l154 269h249l-236 -269h-167z" />
    <glyph glyph-name="uni1EBF" unicode="&#x1ebf;" 
d="M604 -20q-157 0 -276.5 65t-186 183t-66.5 277q0 151 60.5 275.5t175.5 199t277 74.5q164 0 274 -68.5t165.5 -188t55.5 -273.5v-85h-673q-1 -71 22 -119.5t65 -73.5t98 -25q64 0 113.5 26.5t72.5 92.5h304q-17 -113 -89.5 -193.5t-176.5 -123.5t-215 -43zM409 635h358
q0 51 -20 93.5t-59.5 67.5t-99.5 25q-53 0 -93.5 -26.5t-63 -69t-22.5 -90.5zM204 1155l270 275h232l263 -275h-253l-128 144l-144 -144h-240zM836 1409l154 269h249l-236 -269h-167z" />
    <glyph glyph-name="uni1EC0" unicode="&#x1ec0;" horiz-adv-x="1282" 
d="M148 0v1446h1031l-2 -284h-686v-295h585v-278h-587v-302l696 -1v-286h-1037zM279 1567l270 275h232l263 -275h-253l-128 144l-144 -144h-240zM993 1819l-234 270h250l157 -270h-173z" />
    <glyph glyph-name="uni1EC1" unicode="&#x1ec1;" 
d="M604 -20q-157 0 -276.5 65t-186 183t-66.5 277q0 151 60.5 275.5t175.5 199t277 74.5q164 0 274 -68.5t165.5 -188t55.5 -273.5v-85h-673q-1 -71 22 -119.5t65 -73.5t98 -25q64 0 113.5 26.5t72.5 92.5h304q-17 -113 -89.5 -193.5t-176.5 -123.5t-215 -43zM409 635h358
q0 51 -20 93.5t-59.5 67.5t-99.5 25q-53 0 -93.5 -26.5t-63 -69t-22.5 -90.5zM204 1155l270 275h232l263 -275h-253l-128 144l-144 -144h-240zM918 1407l-234 270h250l157 -270h-173z" />
    <glyph glyph-name="uni1EC2" unicode="&#x1ec2;" horiz-adv-x="1282" 
d="M148 0v1446h1031l-2 -284h-686v-295h585v-278h-587v-302l696 -1v-286h-1037zM287 1567l270 275h232l263 -275h-253l-128 144l-144 -144h-240zM992 1776l-76 119q38 24 50 56t-9 66q-17 28 -54.5 31t-71.5 -19l-75 116q95 61 188 45t141 -90q56 -90 35 -175.5t-128 -148.5
z" />
    <glyph glyph-name="uni1EC3" unicode="&#x1ec3;" 
d="M604 -20q-157 0 -276.5 65t-186 183t-66.5 277q0 151 60.5 275.5t175.5 199t277 74.5q164 0 274 -68.5t165.5 -188t55.5 -273.5v-85h-673q-1 -71 22 -119.5t65 -73.5t98 -25q64 0 113.5 26.5t72.5 92.5h304q-17 -113 -89.5 -193.5t-176.5 -123.5t-215 -43zM409 635h358
q0 51 -20 93.5t-59.5 67.5t-99.5 25q-53 0 -93.5 -26.5t-63 -69t-22.5 -90.5zM212 1155l270 275h232l263 -275h-253l-128 144l-144 -144h-240zM917 1364l-76 119q38 24 50 56t-9 66q-17 28 -54.5 31t-71.5 -19l-75 116q95 61 188 45t141 -90q56 -90 35 -175.5t-128 -148.5z
" />
    <glyph glyph-name="uni1EC4" unicode="&#x1ec4;" horiz-adv-x="1282" 
d="M148 0v1446h1031l-2 -284h-686v-295h585v-278h-587v-302l696 -1v-286h-1037zM282 1567l270 275h232l263 -275h-253l-128 144l-144 -144h-240zM347 1927l-50 172q38 41 84.5 70t119.5 29q59 0 112.5 -15.5t102.5 -32t95 -16.5q56 0 101 25.5t77 50.5l38 -197
q-33 -28 -89 -51.5t-126 -23.5q-57 0 -105 14.5t-95 28.5t-101 14q-50 0 -85.5 -15.5t-78.5 -52.5z" />
    <glyph glyph-name="uni1EC5" unicode="&#x1ec5;" 
d="M604 -20q-157 0 -276.5 65t-186 183t-66.5 277q0 151 60.5 275.5t175.5 199t277 74.5q164 0 274 -68.5t165.5 -188t55.5 -273.5v-85h-673q-1 -71 22 -119.5t65 -73.5t98 -25q64 0 113.5 26.5t72.5 92.5h304q-17 -113 -89.5 -193.5t-176.5 -123.5t-215 -43zM409 635h358
q0 51 -20 93.5t-59.5 67.5t-99.5 25q-53 0 -93.5 -26.5t-63 -69t-22.5 -90.5zM208 1155l270 275h232l263 -275h-253l-128 144l-144 -144h-240zM273 1515l-50 172q38 41 84.5 70t119.5 29q59 0 112.5 -15.5t102.5 -32t95 -16.5q56 0 101 25.5t77 50.5l38 -197
q-33 -28 -89 -51.5t-126 -23.5q-57 0 -105 14.5t-95 28.5t-101 14q-50 0 -85.5 -15.5t-78.5 -52.5z" />
    <glyph glyph-name="uni1EC6" unicode="&#x1ec6;" horiz-adv-x="1282" 
d="M148 0v1446h1031l-2 -284h-686v-295h585v-278h-587v-302l696 -1v-286h-1037zM514 -415v264h320v-264h-320zM279 1567l270 275h232l263 -275h-253l-128 144l-144 -144h-240z" />
    <glyph glyph-name="uni1EC7" unicode="&#x1ec7;" 
d="M604 -20q-157 0 -276.5 65t-186 183t-66.5 277q0 151 60.5 275.5t175.5 199t277 74.5q164 0 274 -68.5t165.5 -188t55.5 -273.5v-85h-673q-1 -71 22 -119.5t65 -73.5t98 -25q64 0 113.5 26.5t72.5 92.5h304q-17 -113 -89.5 -193.5t-176.5 -123.5t-215 -43zM409 635h358
q0 51 -20 93.5t-59.5 67.5t-99.5 25q-53 0 -93.5 -26.5t-63 -69t-22.5 -90.5zM435 -415v264h320v-264h-320zM204 1155l270 275h232l263 -275h-253l-128 144l-144 -144h-240z" />
    <glyph glyph-name="uni1EC8" unicode="&#x1ec8;" horiz-adv-x="637" 
d="M148 0v1446h341v-1446h-341zM413 1566l-75 119q37 24 49.5 56t-8.5 66q-17 29 -54.5 31.5t-71.5 -19.5l-76 116q95 61 188.5 45t140.5 -90q57 -90 35.5 -175.5t-128.5 -148.5z" />
    <glyph glyph-name="uni1EC9" unicode="&#x1ec9;" horiz-adv-x="550" 
d="M113 0v1034h325v-1034h-325zM374 1154l-75 119q37 24 49.5 56t-8.5 66q-17 29 -54.5 31.5t-71.5 -19.5l-76 116q95 61 188.5 45t140.5 -90q57 -90 35.5 -175.5t-128.5 -148.5z" />
    <glyph glyph-name="uni1ECA" unicode="&#x1eca;" horiz-adv-x="637" 
d="M148 0v1446h341v-1446h-341zM178 -415v264h320v-264h-320z" />
    <glyph glyph-name="uni1ECB" unicode="&#x1ecb;" horiz-adv-x="552" 
d="M114 0v1034h324v-1034h-324zM113 1150v296h327v-296h-327zM117 -415v264h320v-264h-320z" />
    <glyph glyph-name="uni1ECC" unicode="&#x1ecc;" horiz-adv-x="1546" 
d="M775 -20q-210 0 -363.5 90.5t-237.5 256.5t-84 393q0 229 85 396t239.5 258.5t360.5 91.5t358.5 -91.5t237 -258.5t84.5 -396q0 -227 -83 -393t-236 -256.5t-361 -90.5zM775 256q93 0 163 45.5t108.5 146.5t38.5 267q0 171 -39 275.5t-109 152t-162 47.5q-93 0 -163 -48
t-109.5 -152.5t-39.5 -274.5q0 -166 39.5 -267t109.5 -146.5t163 -45.5zM618 -415v264h320v-264h-320z" />
    <glyph glyph-name="uni1ECD" unicode="&#x1ecd;" 
d="M580 -20q-156 0 -271 66.5t-178 186t-63 278.5q0 162 64.5 284.5t180 190.5t269.5 68q157 0 271.5 -68.5t177 -191t62.5 -283.5q0 -155 -62 -274.5t-177 -188t-274 -68.5zM582 230q69 0 108 43.5t55 111t16 137.5q0 69 -15 135t-54 108.5t-110 42.5t-110.5 -41.5
t-55.5 -107t-16 -137.5q0 -68 15 -135.5t54.5 -112t112.5 -44.5zM417 -415v264h320v-264h-320z" />
    <glyph glyph-name="uni1ECE" unicode="&#x1ece;" horiz-adv-x="1546" 
d="M775 -20q-210 0 -363.5 90.5t-237.5 256.5t-84 393q0 229 85 396t239.5 258.5t360.5 91.5t358.5 -91.5t237 -258.5t84.5 -396q0 -227 -83 -393t-236 -256.5t-361 -90.5zM775 256q93 0 163 45.5t108.5 146.5t38.5 267q0 171 -39 275.5t-109 152t-162 47.5q-93 0 -163 -48
t-109.5 -152.5t-39.5 -274.5q0 -166 39.5 -267t109.5 -146.5t163 -45.5zM867 1566l-75 119q37 24 49.5 56t-8.5 66q-17 29 -54.5 31.5t-71.5 -19.5l-76 116q95 61 188.5 45t140.5 -90q57 -90 35.5 -175.5t-128.5 -148.5z" />
    <glyph glyph-name="uni1ECF" unicode="&#x1ecf;" 
d="M580 -20q-156 0 -271 66.5t-178 186t-63 278.5q0 162 64.5 284.5t180 190.5t269.5 68q157 0 271.5 -68.5t177 -191t62.5 -283.5q0 -155 -62 -274.5t-177 -188t-274 -68.5zM582 230q69 0 108 43.5t55 111t16 137.5q0 69 -15 135t-54 108.5t-110 42.5t-110.5 -41.5
t-55.5 -107t-16 -137.5q0 -68 15 -135.5t54.5 -112t112.5 -44.5zM675 1154l-75 119q37 24 49.5 56t-8.5 66q-17 29 -54.5 31.5t-71.5 -19.5l-76 116q95 61 188.5 45t140.5 -90q57 -90 35.5 -175.5t-128.5 -148.5z" />
    <glyph glyph-name="uni1ED0" unicode="&#x1ed0;" horiz-adv-x="1546" 
d="M775 -20q-210 0 -363.5 90.5t-237.5 256.5t-84 393q0 229 85 396t239.5 258.5t360.5 91.5t358.5 -91.5t237 -258.5t84.5 -396q0 -227 -83 -393t-236 -256.5t-361 -90.5zM775 256q93 0 163 45.5t108.5 146.5t38.5 267q0 171 -39 275.5t-109 152t-162 47.5q-93 0 -163 -48
t-109.5 -152.5t-39.5 -274.5q0 -166 39.5 -267t109.5 -146.5t163 -45.5zM388 1567l270 275h232l263 -275h-253l-128 144l-144 -144h-240zM1020 1821l154 269h249l-236 -269h-167z" />
    <glyph glyph-name="uni1ED1" unicode="&#x1ed1;" 
d="M580 -20q-156 0 -271 66.5t-178 186t-63 278.5q0 162 64.5 284.5t180 190.5t269.5 68q157 0 271.5 -68.5t177 -191t62.5 -283.5q0 -155 -62 -274.5t-177 -188t-274 -68.5zM582 230q69 0 108 43.5t55 111t16 137.5q0 69 -15 135t-54 108.5t-110 42.5t-110.5 -41.5
t-55.5 -107t-16 -137.5q0 -68 15 -135.5t54.5 -112t112.5 -44.5zM196 1155l270 275h232l263 -275h-253l-128 144l-144 -144h-240zM828 1409l154 269h249l-236 -269h-167z" />
    <glyph glyph-name="uni1ED2" unicode="&#x1ed2;" horiz-adv-x="1546" 
d="M775 -20q-210 0 -363.5 90.5t-237.5 256.5t-84 393q0 229 85 396t239.5 258.5t360.5 91.5t358.5 -91.5t237 -258.5t84.5 -396q0 -227 -83 -393t-236 -256.5t-361 -90.5zM775 256q93 0 163 45.5t108.5 146.5t38.5 267q0 171 -39 275.5t-109 152t-162 47.5q-93 0 -163 -48
t-109.5 -152.5t-39.5 -274.5q0 -166 39.5 -267t109.5 -146.5t163 -45.5zM388 1567l270 275h232l263 -275h-253l-128 144l-144 -144h-240zM1102 1819l-234 270h250l157 -270h-173z" />
    <glyph glyph-name="uni1ED3" unicode="&#x1ed3;" 
d="M580 -20q-156 0 -271 66.5t-178 186t-63 278.5q0 162 64.5 284.5t180 190.5t269.5 68q157 0 271.5 -68.5t177 -191t62.5 -283.5q0 -155 -62 -274.5t-177 -188t-274 -68.5zM582 230q69 0 108 43.5t55 111t16 137.5q0 69 -15 135t-54 108.5t-110 42.5t-110.5 -41.5
t-55.5 -107t-16 -137.5q0 -68 15 -135.5t54.5 -112t112.5 -44.5zM196 1155l270 275h232l263 -275h-253l-128 144l-144 -144h-240zM910 1407l-234 270h250l157 -270h-173z" />
    <glyph glyph-name="uni1ED4" unicode="&#x1ed4;" horiz-adv-x="1546" 
d="M775 -20q-210 0 -363.5 90.5t-237.5 256.5t-84 393q0 229 85 396t239.5 258.5t360.5 91.5t358.5 -91.5t237 -258.5t84.5 -396q0 -227 -83 -393t-236 -256.5t-361 -90.5zM775 256q93 0 163 45.5t108.5 146.5t38.5 267q0 171 -39 275.5t-109 152t-162 47.5q-93 0 -163 -48
t-109.5 -152.5t-39.5 -274.5q0 -166 39.5 -267t109.5 -146.5t163 -45.5zM396 1567l270 275h232l263 -275h-253l-128 144l-144 -144h-240zM1101 1776l-76 119q38 24 50 56t-9 66q-17 28 -54.5 31t-71.5 -19l-75 116q95 61 188 45t141 -90q56 -90 35 -175.5t-128 -148.5z" />
    <glyph glyph-name="uni1ED5" unicode="&#x1ed5;" 
d="M580 -20q-156 0 -271 66.5t-178 186t-63 278.5q0 162 64.5 284.5t180 190.5t269.5 68q157 0 271.5 -68.5t177 -191t62.5 -283.5q0 -155 -62 -274.5t-177 -188t-274 -68.5zM582 230q69 0 108 43.5t55 111t16 137.5q0 69 -15 135t-54 108.5t-110 42.5t-110.5 -41.5
t-55.5 -107t-16 -137.5q0 -68 15 -135.5t54.5 -112t112.5 -44.5zM204 1155l270 275h232l263 -275h-253l-128 144l-144 -144h-240zM909 1364l-76 119q38 24 50 56t-9 66q-17 28 -54.5 31t-71.5 -19l-75 116q95 61 188 45t141 -90q56 -90 35 -175.5t-128 -148.5z" />
    <glyph glyph-name="uni1ED6" unicode="&#x1ed6;" horiz-adv-x="1546" 
d="M775 -20q-210 0 -363.5 90.5t-237.5 256.5t-84 393q0 229 85 396t239.5 258.5t360.5 91.5t358.5 -91.5t237 -258.5t84.5 -396q0 -227 -83 -393t-236 -256.5t-361 -90.5zM775 256q93 0 163 45.5t108.5 146.5t38.5 267q0 171 -39 275.5t-109 152t-162 47.5q-93 0 -163 -48
t-109.5 -152.5t-39.5 -274.5q0 -166 39.5 -267t109.5 -146.5t163 -45.5zM391 1567l270 275h232l263 -275h-253l-128 144l-144 -144h-240zM456 1927l-50 172q38 41 84.5 70t119.5 29q59 0 112.5 -15.5t102.5 -32t95 -16.5q56 0 101 25.5t77 50.5l38 -197q-33 -28 -89 -51.5
t-126 -23.5q-57 0 -105 14.5t-95 28.5t-101 14q-50 0 -85.5 -15.5t-78.5 -52.5z" />
    <glyph glyph-name="uni1ED7" unicode="&#x1ed7;" 
d="M580 -20q-156 0 -271 66.5t-178 186t-63 278.5q0 162 64.5 284.5t180 190.5t269.5 68q157 0 271.5 -68.5t177 -191t62.5 -283.5q0 -155 -62 -274.5t-177 -188t-274 -68.5zM582 230q69 0 108 43.5t55 111t16 137.5q0 69 -15 135t-54 108.5t-110 42.5t-110.5 -41.5
t-55.5 -107t-16 -137.5q0 -68 15 -135.5t54.5 -112t112.5 -44.5zM199 1155l270 275h232l263 -275h-253l-128 144l-144 -144h-240zM264 1515l-50 172q38 41 84.5 70t119.5 29q59 0 112.5 -15.5t102.5 -32t95 -16.5q56 0 101 25.5t77 50.5l38 -197q-33 -28 -89 -51.5
t-126 -23.5q-57 0 -105 14.5t-95 28.5t-101 14q-50 0 -85.5 -15.5t-78.5 -52.5z" />
    <glyph glyph-name="uni1ED8" unicode="&#x1ed8;" horiz-adv-x="1546" 
d="M775 -20q-210 0 -363.5 90.5t-237.5 256.5t-84 393q0 229 85 396t239.5 258.5t360.5 91.5t358.5 -91.5t237 -258.5t84.5 -396q0 -227 -83 -393t-236 -256.5t-361 -90.5zM775 256q93 0 163 45.5t108.5 146.5t38.5 267q0 171 -39 275.5t-109 152t-162 47.5q-93 0 -163 -48
t-109.5 -152.5t-39.5 -274.5q0 -166 39.5 -267t109.5 -146.5t163 -45.5zM618 -415v264h320v-264h-320zM388 1567l270 275h232l263 -275h-253l-128 144l-144 -144h-240z" />
    <glyph glyph-name="uni1ED9" unicode="&#x1ed9;" 
d="M580 -20q-156 0 -271 66.5t-178 186t-63 278.5q0 162 64.5 284.5t180 190.5t269.5 68q157 0 271.5 -68.5t177 -191t62.5 -283.5q0 -155 -62 -274.5t-177 -188t-274 -68.5zM582 230q69 0 108 43.5t55 111t16 137.5q0 69 -15 135t-54 108.5t-110 42.5t-110.5 -41.5
t-55.5 -107t-16 -137.5q0 -68 15 -135.5t54.5 -112t112.5 -44.5zM417 -415v264h320v-264h-320zM196 1155l270 275h232l263 -275h-253l-128 144l-144 -144h-240z" />
    <glyph glyph-name="uni1EDA" unicode="&#x1eda;" horiz-adv-x="1715" 
d="M775 -20q-210 0 -363.5 90.5t-237.5 256.5t-84 393q0 229 85 396t239.5 258.5t360.5 91.5q151 0 274 -50t212 -143q49 0 84 3.5t57.5 22t36.5 63.5t20 127h214q-1 -132 -28 -216t-91 -125t-179 -42q39 -80 59.5 -177t20.5 -209q0 -227 -83 -393t-236 -256.5t-361 -90.5z
M775 256q93 0 163 45.5t108.5 146.5t38.5 267q0 171 -39 275.5t-109 152t-162 47.5q-93 0 -163 -48t-109.5 -152.5t-39.5 -274.5q0 -166 39.5 -267t109.5 -146.5t163 -45.5zM651 1567l206 291h342l-307 -291h-241z" />
    <glyph glyph-name="uni1EDB" unicode="&#x1edb;" horiz-adv-x="1318" 
d="M448 1155l206 291h342l-307 -291h-241zM580 -20q-156 0 -271 66.5t-178 186t-63 278.5q0 162 64.5 284.5t180 190.5t269.5 68q120 0 216 -41t163 -116q52 1 85.5 13t51.5 57.5t26 144.5h213q-1 -128 -26 -211t-86 -124t-169 -46q37 -99 37 -220q0 -155 -62 -274.5
t-177 -188t-274 -68.5zM582 230q69 0 108 43.5t55 111t16 137.5q0 69 -15 135t-54 108.5t-110 42.5t-110.5 -41.5t-55.5 -107t-16 -137.5q0 -68 15 -135.5t54.5 -112t112.5 -44.5z" />
    <glyph glyph-name="uni1EDC" unicode="&#x1edc;" horiz-adv-x="1715" 
d="M775 -20q-210 0 -363.5 90.5t-237.5 256.5t-84 393q0 229 85 396t239.5 258.5t360.5 91.5q151 0 274 -50t212 -143q49 0 84 3.5t57.5 22t36.5 63.5t20 127h214q-1 -132 -28 -216t-91 -125t-179 -42q39 -80 59.5 -177t20.5 -209q0 -227 -83 -393t-236 -256.5t-361 -90.5z
M775 256q93 0 163 45.5t108.5 146.5t38.5 267q0 171 -39 275.5t-109 152t-162 47.5q-93 0 -163 -48t-109.5 -152.5t-39.5 -274.5q0 -166 39.5 -267t109.5 -146.5t163 -45.5zM647 1567l-307 291h342l206 -291h-241z" />
    <glyph glyph-name="uni1EDD" unicode="&#x1edd;" horiz-adv-x="1318" 
d="M443 1155l-307 291h342l206 -291h-241zM580 -20q-156 0 -271 66.5t-178 186t-63 278.5q0 162 64.5 284.5t180 190.5t269.5 68q120 0 216 -41t163 -116q52 1 85.5 13t51.5 57.5t26 144.5h213q-1 -128 -26 -211t-86 -124t-169 -46q37 -99 37 -220q0 -155 -62 -274.5
t-177 -188t-274 -68.5zM582 230q69 0 108 43.5t55 111t16 137.5q0 69 -15 135t-54 108.5t-110 42.5t-110.5 -41.5t-55.5 -107t-16 -137.5q0 -68 15 -135.5t54.5 -112t112.5 -44.5z" />
    <glyph glyph-name="uni1EDE" unicode="&#x1ede;" horiz-adv-x="1715" 
d="M775 -20q-210 0 -363.5 90.5t-237.5 256.5t-84 393q0 229 85 396t239.5 258.5t360.5 91.5q151 0 274 -50t212 -143q49 0 84 3.5t57.5 22t36.5 63.5t20 127h214q-1 -132 -28 -216t-91 -125t-179 -42q39 -80 59.5 -177t20.5 -209q0 -227 -83 -393t-236 -256.5t-361 -90.5z
M775 256q93 0 163 45.5t108.5 146.5t38.5 267q0 171 -39 275.5t-109 152t-162 47.5q-93 0 -163 -48t-109.5 -152.5t-39.5 -274.5q0 -166 39.5 -267t109.5 -146.5t163 -45.5zM867 1566l-75 119q37 24 49.5 56t-8.5 66q-17 29 -54.5 31.5t-71.5 -19.5l-76 116q95 61 188.5 45
t140.5 -90q57 -90 35.5 -175.5t-128.5 -148.5z" />
    <glyph glyph-name="uni1EDF" unicode="&#x1edf;" horiz-adv-x="1318" 
d="M658 1154l-75 119q37 24 49.5 56t-8.5 66q-17 29 -54.5 31.5t-71.5 -19.5l-76 116q95 61 188.5 45t140.5 -90q57 -90 35.5 -175.5t-128.5 -148.5zM580 -20q-156 0 -271 66.5t-178 186t-63 278.5q0 162 64.5 284.5t180 190.5t269.5 68q120 0 216 -41t163 -116
q52 1 85.5 13t51.5 57.5t26 144.5h213q-1 -128 -26 -211t-86 -124t-169 -46q37 -99 37 -220q0 -155 -62 -274.5t-177 -188t-274 -68.5zM582 230q69 0 108 43.5t55 111t16 137.5q0 69 -15 135t-54 108.5t-110 42.5t-110.5 -41.5t-55.5 -107t-16 -137.5q0 -68 15 -135.5
t54.5 -112t112.5 -44.5z" />
    <glyph glyph-name="uni1EE0" unicode="&#x1ee0;" horiz-adv-x="1715" 
d="M775 -20q-210 0 -363.5 90.5t-237.5 256.5t-84 393q0 229 85 396t239.5 258.5t360.5 91.5q151 0 274 -50t212 -143q49 0 84 3.5t57.5 22t36.5 63.5t20 127h214q-1 -132 -28 -216t-91 -125t-179 -42q39 -80 59.5 -177t20.5 -209q0 -227 -83 -393t-236 -256.5t-361 -90.5z
M775 256q93 0 163 45.5t108.5 146.5t38.5 267q0 171 -39 275.5t-109 152t-162 47.5q-93 0 -163 -48t-109.5 -152.5t-39.5 -274.5q0 -166 39.5 -267t109.5 -146.5t163 -45.5zM464 1590l-50 172q38 41 85 70.5t120 29.5q59 0 112 -16t102.5 -32.5t94.5 -16.5q56 0 101 25.5
t77 50.5l38 -197q-33 -28 -89 -51.5t-125 -23.5q-57 0 -105.5 14.5t-95.5 28.5t-101 14q-50 0 -85.5 -15.5t-78.5 -52.5z" />
    <glyph glyph-name="uni1EE1" unicode="&#x1ee1;" horiz-adv-x="1318" 
d="M256 1178l-50 172q38 41 85 70.5t120 29.5q59 0 112 -16t102.5 -32.5t94.5 -16.5q56 0 101 25.5t77 50.5l38 -197q-33 -28 -89 -51.5t-125 -23.5q-57 0 -105.5 14.5t-95.5 28.5t-101 14q-50 0 -85.5 -15.5t-78.5 -52.5zM580 -20q-156 0 -271 66.5t-178 186t-63 278.5
q0 162 64.5 284.5t180 190.5t269.5 68q120 0 216 -41t163 -116q52 1 85.5 13t51.5 57.5t26 144.5h213q-1 -128 -26 -211t-86 -124t-169 -46q37 -99 37 -220q0 -155 -62 -274.5t-177 -188t-274 -68.5zM582 230q69 0 108 43.5t55 111t16 137.5q0 69 -15 135t-54 108.5
t-110 42.5t-110.5 -41.5t-55.5 -107t-16 -137.5q0 -68 15 -135.5t54.5 -112t112.5 -44.5z" />
    <glyph glyph-name="uni1EE2" unicode="&#x1ee2;" horiz-adv-x="1715" 
d="M775 -20q-210 0 -363.5 90.5t-237.5 256.5t-84 393q0 229 85 396t239.5 258.5t360.5 91.5q151 0 274 -50t212 -143q49 0 84 3.5t57.5 22t36.5 63.5t20 127h214q-1 -132 -28 -216t-91 -125t-179 -42q39 -80 59.5 -177t20.5 -209q0 -227 -83 -393t-236 -256.5t-361 -90.5z
M775 256q93 0 163 45.5t108.5 146.5t38.5 267q0 171 -39 275.5t-109 152t-162 47.5q-93 0 -163 -48t-109.5 -152.5t-39.5 -274.5q0 -166 39.5 -267t109.5 -146.5t163 -45.5zM618 -415v264h320v-264h-320z" />
    <glyph glyph-name="uni1EE3" unicode="&#x1ee3;" horiz-adv-x="1318" 
d="M387 -415v264h320v-264h-320zM580 -20q-156 0 -271 66.5t-178 186t-63 278.5q0 162 64.5 284.5t180 190.5t269.5 68q120 0 216 -41t163 -116q52 1 85.5 13t51.5 57.5t26 144.5h213q-1 -128 -26 -211t-86 -124t-169 -46q37 -99 37 -220q0 -155 -62 -274.5t-177 -188
t-274 -68.5zM582 230q69 0 108 43.5t55 111t16 137.5q0 69 -15 135t-54 108.5t-110 42.5t-110.5 -41.5t-55.5 -107t-16 -137.5q0 -68 15 -135.5t54.5 -112t112.5 -44.5z" />
    <glyph glyph-name="uni1EE4" unicode="&#x1ee4;" horiz-adv-x="1470" 
d="M749 -20q-222 0 -353.5 74t-189.5 208.5t-58 316.5v867h346v-886q0 -156 74 -224.5t181 -68.5q72 0 130.5 30t92.5 94.5t34 168.5v886h345v-871q0 -180 -58 -313.5t-190 -207.5t-354 -74zM590 -414v264h320v-264h-320z" />
    <glyph glyph-name="uni1EE5" unicode="&#x1ee5;" horiz-adv-x="1204" 
d="M493 -20q-67 0 -136 22t-127 64.5t-93.5 104t-35.5 141.5v722h341v-676q0 -58 40 -96.5t115 -38.5q72 0 114 37.5t42 99.5v674h338v-1034h-254l-40 209q-19 -97 -70 -146.5t-114.5 -66t-119.5 -16.5zM445 -415v264h320v-264h-320z" />
    <glyph glyph-name="uni1EE6" unicode="&#x1ee6;" horiz-adv-x="1470" 
d="M749 -20q-222 0 -353.5 74t-189.5 208.5t-58 316.5v867h346v-886q0 -156 74 -224.5t181 -68.5q72 0 130.5 30t92.5 94.5t34 168.5v886h345v-871q0 -180 -58 -313.5t-190 -207.5t-354 -74zM843 1566l-75 119q37 24 49.5 56t-8.5 66q-17 29 -54.5 31.5t-71.5 -19.5l-76 116
q95 61 188.5 45t140.5 -90q57 -90 35.5 -175.5t-128.5 -148.5z" />
    <glyph glyph-name="uni1EE7" unicode="&#x1ee7;" horiz-adv-x="1204" 
d="M493 -20q-67 0 -136 22t-127 64.5t-93.5 104t-35.5 141.5v722h341v-676q0 -58 40 -96.5t115 -38.5q72 0 114 37.5t42 99.5v674h338v-1034h-254l-40 209q-19 -97 -70 -146.5t-114.5 -66t-119.5 -16.5zM692 1154l-75 119q37 24 49.5 56t-8.5 66q-17 29 -54.5 31.5
t-71.5 -19.5l-76 116q95 61 188.5 45t140.5 -90q57 -90 35.5 -175.5t-128.5 -148.5z" />
    <glyph glyph-name="uni1EE8" unicode="&#x1ee8;" horiz-adv-x="1766" 
d="M749 -20q-222 0 -353.5 74t-189.5 208.5t-58 316.5v867h346v-886q0 -156 74 -224.5t181 -68.5q72 0 130.5 30t92.5 94.5t34 168.5v886h345v-173q46 1 75 16t45 61t23 139h214q-2 -143 -33.5 -229.5t-108 -123.5t-215.5 -29v-532q0 -180 -58 -313.5t-190 -207.5t-354 -74z
M628 1567l206 291h342l-307 -291h-241z" />
    <glyph glyph-name="uni1EE9" unicode="&#x1ee9;" horiz-adv-x="1473" 
d="M488 1155l206 291h342l-307 -291h-241zM493 -20q-67 0 -136 22t-127 64.5t-93.5 104t-35.5 141.5v722h341v-676q0 -58 40 -96.5t115 -38.5q72 0 114 37.5t42 99.5v674h338v-138q51 0 83 14t49.5 60t24.5 142h213q-1 -144 -33.5 -231.5t-112.5 -123t-224 -25.5v-732h-254
l-40 209q-19 -97 -70 -146.5t-114.5 -66t-119.5 -16.5z" />
    <glyph glyph-name="uni1EEA" unicode="&#x1eea;" horiz-adv-x="1766" 
d="M749 -20q-222 0 -353.5 74t-189.5 208.5t-58 316.5v867h346v-886q0 -156 74 -224.5t181 -68.5q72 0 130.5 30t92.5 94.5t34 168.5v886h345v-173q46 1 75 16t45 61t23 139h214q-2 -143 -33.5 -229.5t-108 -123.5t-215.5 -29v-532q0 -180 -58 -313.5t-190 -207.5t-354 -74z
M623 1567l-307 291h342l206 -291h-241z" />
    <glyph glyph-name="uni1EEB" unicode="&#x1eeb;" horiz-adv-x="1473" 
d="M483 1155l-307 291h342l206 -291h-241zM493 -20q-67 0 -136 22t-127 64.5t-93.5 104t-35.5 141.5v722h341v-676q0 -58 40 -96.5t115 -38.5q72 0 114 37.5t42 99.5v674h338v-138q51 0 83 14t49.5 60t24.5 142h213q-1 -144 -33.5 -231.5t-112.5 -123t-224 -25.5v-732h-254
l-40 209q-19 -97 -70 -146.5t-114.5 -66t-119.5 -16.5z" />
    <glyph glyph-name="uni1EEC" unicode="&#x1eec;" horiz-adv-x="1766" 
d="M749 -20q-222 0 -353.5 74t-189.5 208.5t-58 316.5v867h346v-886q0 -156 74 -224.5t181 -68.5q72 0 130.5 30t92.5 94.5t34 168.5v886h345v-173q46 1 75 16t45 61t23 139h214q-2 -143 -33.5 -229.5t-108 -123.5t-215.5 -29v-532q0 -180 -58 -313.5t-190 -207.5t-354 -74z
M843 1566l-75 119q37 24 49.5 56t-8.5 66q-17 29 -54.5 31.5t-71.5 -19.5l-76 116q95 61 188.5 45t140.5 -90q57 -90 35.5 -175.5t-128.5 -148.5z" />
    <glyph glyph-name="uni1EED" unicode="&#x1eed;" horiz-adv-x="1473" 
d="M699 1154l-75 119q37 24 49.5 56t-8.5 66q-17 29 -54.5 31.5t-71.5 -19.5l-76 116q95 61 188.5 45t140.5 -90q57 -90 35.5 -175.5t-128.5 -148.5zM493 -20q-67 0 -136 22t-127 64.5t-93.5 104t-35.5 141.5v722h341v-676q0 -58 40 -96.5t115 -38.5q72 0 114 37.5t42 99.5
v674h338v-138q51 0 83 14t49.5 60t24.5 142h213q-1 -144 -33.5 -231.5t-112.5 -123t-224 -25.5v-732h-254l-40 209q-19 -97 -70 -146.5t-114.5 -66t-119.5 -16.5z" />
    <glyph glyph-name="uni1EEE" unicode="&#x1eee;" horiz-adv-x="1756" 
d="M749 -20q-222 0 -353.5 74t-189.5 208.5t-58 316.5v867h346v-886q0 -156 74 -224.5t181 -68.5q72 0 130.5 30t92.5 94.5t34 168.5v886h345v-173q46 1 75 16t45 61t23 139h214q-2 -143 -33.5 -229.5t-108 -123.5t-215.5 -29v-532q0 -180 -58 -313.5t-190 -207.5t-354 -74z
M441 1590l-50 172q38 41 85 70.5t120 29.5q59 0 112 -16t102.5 -32.5t94.5 -16.5q56 0 101 25.5t77 50.5l38 -197q-33 -28 -89 -51.5t-125 -23.5q-57 0 -105.5 14.5t-95.5 28.5t-101 14q-50 0 -85.5 -15.5t-78.5 -52.5z" />
    <glyph glyph-name="uni1EEF" unicode="&#x1eef;" horiz-adv-x="1473" 
d="M296 1178l-50 172q38 41 85 70.5t120 29.5q59 0 112 -16t102.5 -32.5t94.5 -16.5q56 0 101 25.5t77 50.5l38 -197q-33 -28 -89 -51.5t-125 -23.5q-57 0 -105.5 14.5t-95.5 28.5t-101 14q-50 0 -85.5 -15.5t-78.5 -52.5zM493 -20q-67 0 -136 22t-127 64.5t-93.5 104
t-35.5 141.5v722h341v-676q0 -58 40 -96.5t115 -38.5q72 0 114 37.5t42 99.5v674h338v-138q51 0 83 14t49.5 60t24.5 142h213q-1 -144 -33.5 -231.5t-112.5 -123t-224 -25.5v-732h-254l-40 209q-19 -97 -70 -146.5t-114.5 -66t-119.5 -16.5z" />
    <glyph glyph-name="uni1EF0" unicode="&#x1ef0;" horiz-adv-x="1766" 
d="M749 -20q-222 0 -353.5 74t-189.5 208.5t-58 316.5v867h346v-886q0 -156 74 -224.5t181 -68.5q72 0 130.5 30t92.5 94.5t34 168.5v886h345v-173q46 1 75 16t45 61t23 139h214q-2 -143 -33.5 -229.5t-108 -123.5t-215.5 -29v-532q0 -180 -58 -313.5t-190 -207.5t-354 -74z
M590 -414v264h320v-264h-320z" />
    <glyph glyph-name="uni1EF1" unicode="&#x1ef1;" horiz-adv-x="1473" 
d="M434 -415v264h320v-264h-320zM493 -20q-67 0 -136 22t-127 64.5t-93.5 104t-35.5 141.5v722h341v-676q0 -58 40 -96.5t115 -38.5q72 0 114 37.5t42 99.5v674h338v-138q51 0 83 14t49.5 60t24.5 142h213q-1 -144 -33.5 -231.5t-112.5 -123t-224 -25.5v-732h-254l-40 209
q-19 -97 -70 -146.5t-114.5 -66t-119.5 -16.5z" />
    <glyph glyph-name="Ygrave" unicode="&#x1ef2;" horiz-adv-x="1389" 
d="M522 0v605l-505 841h368l310 -550l305 550h372l-509 -841v-605h-341zM610 1568l-307 291h342l206 -291h-241z" />
    <glyph glyph-name="ygrave" unicode="&#x1ef3;" horiz-adv-x="1152" 
d="M301 -330q-113 0 -161 20l-48 20v216l100 -5q72 -5 114 5t63 27.5t28.5 35t9.5 24.5l12 39l-402 982h336l222 -618l227 618h333l-411 -1007q-61 -147 -126 -224.5t-138.5 -105t-158.5 -27.5zM448 1155l-307 291h342l206 -291h-241z" />
    <glyph glyph-name="uni1EF4" unicode="&#x1ef4;" horiz-adv-x="1389" 
d="M522 0v605l-505 841h368l310 -550l305 550h372l-509 -841v-605h-341zM535 -415v264h320v-264h-320z" />
    <glyph glyph-name="uni1EF5" unicode="&#x1ef5;" horiz-adv-x="1152" 
d="M301 -330q-113 0 -161 20l-48 20v216l100 -5q72 -5 114 5t63 27.5t28.5 35t9.5 24.5l12 39l-402 982h336l222 -618l227 618h333l-411 -1007q-61 -147 -126 -224.5t-138.5 -105t-158.5 -27.5zM737 -363v264h320v-264h-320z" />
    <glyph glyph-name="uni1EF6" unicode="&#x1ef6;" horiz-adv-x="1389" 
d="M522 0v605l-505 841h368l310 -550l305 550h372l-509 -841v-605h-341zM829 1567l-75 119q37 24 49.5 56t-8.5 66q-17 29 -54.5 31.5t-71.5 -19.5l-76 116q95 61 188.5 45t140.5 -90q57 -90 35.5 -175.5t-128.5 -148.5z" />
    <glyph glyph-name="uni1EF7" unicode="&#x1ef7;" horiz-adv-x="1152" 
d="M301 -330q-113 0 -161 20l-48 20v216l100 -5q72 -5 114 5t63 27.5t28.5 35t9.5 24.5l12 39l-402 982h336l222 -618l227 618h333l-411 -1007q-61 -147 -126 -224.5t-138.5 -105t-158.5 -27.5zM668 1154l-75 119q37 24 49.5 56t-8.5 66q-17 29 -54.5 31.5t-71.5 -19.5
l-76 116q95 61 188.5 45t140.5 -90q57 -90 35.5 -175.5t-128.5 -148.5z" />
    <glyph glyph-name="uni1EF8" unicode="&#x1ef8;" horiz-adv-x="1389" 
d="M522 0v605l-505 841h368l310 -550l305 550h372l-509 -841v-605h-341zM427 1591l-50 172q38 41 85 70.5t120 29.5q59 0 112 -16t102.5 -32.5t94.5 -16.5q56 0 101 25.5t77 50.5l38 -197q-33 -28 -89 -51.5t-125 -23.5q-57 0 -105.5 14.5t-95.5 28.5t-101 14
q-50 0 -85.5 -15.5t-78.5 -52.5z" />
    <glyph glyph-name="uni1EF9" unicode="&#x1ef9;" horiz-adv-x="1152" 
d="M301 -330q-113 0 -161 20l-48 20v216l100 -5q72 -5 114 5t63 27.5t28.5 35t9.5 24.5l12 39l-402 982h336l222 -618l227 618h333l-411 -1007q-61 -147 -126 -224.5t-138.5 -105t-158.5 -27.5zM266 1178l-50 172q38 41 85 70.5t120 29.5q59 0 112 -16t102.5 -32.5
t94.5 -16.5q56 0 101 25.5t77 50.5l38 -197q-33 -28 -89 -51.5t-125 -23.5q-57 0 -105.5 14.5t-95.5 28.5t-101 14q-50 0 -85.5 -15.5t-78.5 -52.5z" />
    <glyph glyph-name="endash" unicode="&#x2013;" horiz-adv-x="1218" 
d="M119 373v244h981v-243z" />
    <glyph glyph-name="emdash" unicode="&#x2014;" horiz-adv-x="2326" 
d="M356 373v244h1614v-243z" />
    <glyph glyph-name="quoteleft" unicode="&#x2018;" horiz-adv-x="547" 
d="M63 902v273l216 330h118l-118 -283l109 -12v-308h-325z" />
    <glyph glyph-name="quoteright" unicode="&#x2019;" horiz-adv-x="551" 
d="M100 843l118 283l-109 12v308h325v-273l-216 -330h-118z" />
    <glyph glyph-name="quotesinglbase" unicode="&#x201a;" horiz-adv-x="586" 
d="M97 -289l118 282l-109 12v310h325v-274l-216 -330h-118z" />
    <glyph glyph-name="quotedblleft" unicode="&#x201c;" horiz-adv-x="1013" 
d="M63 843v273l216 330h118l-118 -283l109 -12v-308h-325zM530 843v273l215 330h118l-118 -283l109 -12v-308h-324z" />
    <glyph glyph-name="quotedblright" unicode="&#x201d;" horiz-adv-x="1017" 
d="M565 843l119 283l-110 12v308h326v-273l-216 -330h-119zM100 843l118 283l-109 12v308h325v-273l-216 -330h-118z" />
    <glyph glyph-name="quotedblbase" unicode="&#x201e;" horiz-adv-x="1063" 
d="M575 -289l118 282l-109 12v310h325v-274l-216 -330h-118zM97 -289l118 282l-109 12v310h325v-274l-216 -330h-118z" />
    <glyph glyph-name="dagger" unicode="&#x2020;" horiz-adv-x="1099" 
d="M381 -322l62 1084l-367 -49v291l356 -44l-54 486h325l-55 -486l358 44v-291l-369 49l64 -1084h-320z" />
    <glyph glyph-name="daggerdbl" unicode="&#x2021;" horiz-adv-x="1099" 
d="M378 -322l56 454l-358 -46v292l364 -48v397l-364 -48v290l356 -44l-54 521h323l-53 -521l358 44v-290l-365 48v-397l365 48v-292l-359 46l56 -454h-325z" />
    <glyph glyph-name="bullet" unicode="&#x2022;" horiz-adv-x="739" 
d="M356 459q-76 0 -138.5 37.5t-99.5 100.5t-37 139q0 75 37 137.5t99.5 100t138.5 37.5t139 -37.5t100.5 -99.5t37.5 -138t-37.5 -139t-100.5 -100.5t-139 -37.5z" />
    <glyph glyph-name="ellipsis" unicode="&#x2026;" horiz-adv-x="1905" 
d="M1420 0v355h365v-355h-365zM95 0v355h365v-355h-365zM758 0v355h365v-355h-365z" />
    <glyph glyph-name="perthousand" unicode="&#x2030;" horiz-adv-x="2748" 
d="M392 -8l977 1470h191l-972 -1470h-196zM464 650q-108 0 -193.5 55.5t-135 147.5t-49.5 201q0 111 50.5 205t136 151.5t191.5 57.5q104 0 189 -57.5t134.5 -151.5t49.5 -205q0 -109 -49 -201t-133.5 -147.5t-190.5 -55.5zM462 819q70 0 98.5 59.5t28.5 175.5
q0 121 -30 183.5t-97 62.5t-97 -63t-30 -183q0 -115 29 -175t98 -60zM1432 -20q-107 0 -193 56t-135 148t-49 202q0 111 50 205t135.5 151.5t191.5 57.5t191 -57.5t134.5 -151.5t49.5 -205q0 -110 -49 -202t-134 -148t-192 -56zM1430 151q70 0 98.5 59.5t28.5 173.5
q0 121 -29.5 184t-97.5 63q-67 0 -96 -63.5t-29 -183.5q0 -114 28 -173.5t97 -59.5zM2272 -20q-108 0 -193.5 56t-134.5 148t-49 202q0 111 49.5 205t135 151.5t192.5 57.5q105 0 189.5 -57.5t134 -151.5t49.5 -205q0 -110 -48.5 -202t-133.5 -148t-191 -56zM2270 151
q70 0 97.5 59.5t27.5 173.5q0 121 -28.5 184t-96.5 63q-67 0 -97 -63.5t-30 -183.5q0 -114 29 -173.5t98 -59.5z" />
    <glyph glyph-name="guilsinglleft" unicode="&#x2039;" horiz-adv-x="646" 
d="M336 123l-225 379l224 395h179l-146 -395l145 -379h-177z" />
    <glyph glyph-name="guilsinglright" unicode="&#x203a;" horiz-adv-x="646" 
d="M133 123l145 379l-146 395h179l224 -395l-225 -379h-177z" />
    <glyph glyph-name="fraction" unicode="&#x2044;" horiz-adv-x="478" 
d="M-149 -8l-194 3l975 1467h191z" />
    <glyph glyph-name="uni2070" unicode="&#x2070;" horiz-adv-x="825" 
d="M414 734q-173 0 -268.5 120.5t-95.5 341.5q0 223 96.5 347t267.5 124q170 0 265.5 -124t95.5 -346q0 -221 -94 -342t-267 -121zM413 905q75 0 106.5 67t31.5 223q0 162 -32.5 233t-105.5 71q-74 0 -106.5 -71.5t-32.5 -232.5q0 -156 32 -223t107 -67z" />
    <glyph glyph-name="uni2074" unicode="&#x2074;" horiz-adv-x="836" 
d="M453 746l1 187h-413v171l408 551h211v-545h136v-177h-136v-187h-207zM238 1110h217v290z" />
    <glyph glyph-name="uni2075" unicode="&#x2075;" horiz-adv-x="865" 
d="M449 732q-139 0 -245.5 58t-153.5 147l165 104q39 -59 86.5 -99t123.5 -40q75 0 119.5 37.5t44.5 94.5q0 54 -42.5 92.5t-116.5 38.5q-36 0 -67 -9t-74 -37q-11 -4 -15 -4t-16 6l-150 75l42 458h604l-9 -175h-427l-16 -182q52 20 93.5 30.5t92.5 10.5q95 0 168.5 -35
t115.5 -101t42 -161q0 -145 -98.5 -227t-266.5 -82z" />
    <glyph glyph-name="uni2076" unicode="&#x2076;" horiz-adv-x="848" 
d="M438 736q-182 0 -285 122t-103 322q0 230 107 358t288 128q90 0 166 -32.5t123.5 -94t49.5 -147.5h-197q-15 54 -50 80t-87 26q-88 0 -130 -71.5t-30 -173.5q36 32 87.5 48t106.5 16q142 0 227.5 -76t85.5 -199q0 -89 -46 -158t-127 -108.5t-186 -39.5zM430 895
q56 0 98 38.5t42 98.5q0 68 -43 97t-97 29q-33 0 -64.5 -14.5t-52 -35.5t-20.5 -39q0 -86 38.5 -130t98.5 -44z" />
    <glyph glyph-name="uni2077" unicode="&#x2077;" horiz-adv-x="760" 
d="M206 748q4 70 34.5 189t97.5 262t178 283h-475v176h698v-175q-51 -60 -103.5 -151.5t-97 -195.5t-72 -206t-28.5 -182h-232z" />
    <glyph glyph-name="uni2078" unicode="&#x2078;" horiz-adv-x="873" 
d="M437 736q-169 0 -273 71t-104 195q0 52 25.5 97.5t64 77.5t77.5 41q-53 27 -90 75t-37 115q0 125 96 191.5t241 66.5q146 0 241.5 -66.5t95.5 -191.5q0 -67 -37 -115t-90 -75q40 -9 78 -41t63 -77.5t25 -97.5q0 -124 -103.5 -195t-272.5 -71zM437 893q69 0 108 31.5
t39 84.5q0 54 -39 86.5t-108 32.5q-70 0 -109 -32.5t-39 -86.5q0 -53 39 -84.5t109 -31.5zM437 1299q54 0 88.5 30.5t34.5 82.5t-35 83t-88 31q-52 0 -87.5 -31t-35.5 -83t35 -82.5t88 -30.5z" />
    <glyph glyph-name="uni2079" unicode="&#x2079;" horiz-adv-x="844" 
d="M398 736q-90 0 -167.5 34t-125 96t-50.5 145h203q10 -49 44 -78t86 -29q88 0 143.5 57.5t45.5 196.5q-31 -39 -81.5 -61t-121.5 -22q-141 0 -231.5 78t-90.5 207q0 89 45 158.5t125 108.5t184 39q183 0 285 -121.5t102 -322.5q0 -252 -107 -369t-288 -117zM414 1244
q33 0 65 14.5t52.5 36t20.5 38.5q0 86 -38 130t-99 44q-57 0 -94.5 -37.5t-37.5 -98.5q0 -63 39 -95t92 -32z" />
    <glyph glyph-name="colonmonetary" unicode="&#x20a1;" horiz-adv-x="1463" 
d="M764 -20q-206 0 -357 96.5t-234 267.5t-83 395q0 223 82 386t233.5 252t358.5 89q168 0 299.5 -66.5t212.5 -183t97 -265.5h-357q-12 72 -45.5 125.5t-88 83.5t-129.5 30q-87 0 -152 -43.5t-100.5 -144t-35.5 -268.5q0 -256 78.5 -367t209.5 -111q75 0 129.5 36t88 96.5
t45.5 131.5h357q-14 -107 -50.5 -204.5t-105.5 -173.5t-179.5 -119t-273.5 -43zM421 -122l320 1682h141l-320 -1682h-141zM659 -122l320 1682h141l-320 -1682h-141z" />
    <glyph glyph-name="franc" unicode="&#x20a3;" horiz-adv-x="1263" 
d="M123 0v1446h1071l-2 -280h-682v-317h474v-274h-474v-575h-387zM-49 225v178l844 1v-179h-844z" />
    <glyph glyph-name="lira" unicode="&#x20a4;" horiz-adv-x="1328" 
d="M45 0v280h65q62 0 104.5 30.5t55.5 97.5q4 13 5.5 28t0.5 32q0 15 -17 15h-207v177h200l-16 116h-184v178h159l-7 88q-14 145 50.5 239t176.5 139.5t242 45.5q95 0 192.5 -32.5t178 -101t125.5 -175.5l-297 -87q-21 52 -53.5 91t-92.5 39q-38 0 -67.5 -17t-45.5 -49.5
t-16 -78.5q0 -14 2.5 -34.5t5.5 -43.5t23 -23l249 1v-179h-241l12 -116l229 1v-177h-237q-9 -38 -26 -75t-42 -69t-59 -58h241q86 0 135.5 36t76.5 122l286 -59q-45 -185 -169.5 -283t-301.5 -98h-736z" />
    <glyph glyph-name="uni20A6" unicode="&#x20a6;" horiz-adv-x="1726" 
d="M227 0v1446h341l612 -882v882h340v-1446h-307l-645 928v-928h-341zM18 441v160h1689v-160h-1689zM18 885v160h1689v-160h-1689z" />
    <glyph glyph-name="uni20A9" unicode="&#x20a9;" horiz-adv-x="2318" 
d="M631 0l-431 1446h331l247 -865l242 865h242l248 -865l242 865h331l-430 -1446h-262l-250 866l-252 -866h-258zM22 770v177h2258v-177h-2258zM22 1082v177h2258v-177h-2258z" />
    <glyph glyph-name="dong" unicode="&#x20ab;" horiz-adv-x="1097" 
d="M404 249q-96 0 -170.5 49t-117.5 146t-43 241q0 136 48 236.5t127 155.5t172 55q61 0 109.5 -19t94.5 -64q14 -10 22.5 -8t8.5 19v386h283v-1181h-279v101q-32 -33 -67.5 -59.5t-81 -42t-106.5 -15.5zM131 0v157h809v-157h-809zM518 423q39 0 69.5 17t47.5 45t17 62v336
q-29 34 -59.5 52t-73.5 18q-69 0 -113 -59.5t-44 -205.5q0 -97 19 -155t54 -84t83 -26zM447 1199v142h612v-142h-612z" />
    <glyph glyph-name="Euro" unicode="&#x20ac;" horiz-adv-x="1351" 
d="M791 -20q-138 0 -253 55.5t-199 157t-129.5 240.5t-45.5 305q0 223 80.5 386t222 252.5t326.5 89.5q151 0 275 -60t203 -163l-234 -170q-42 48 -91 87.5t-122 39.5q-81 0 -141 -46.5t-93 -149.5t-33 -271t37 -271.5t100.5 -151t141.5 -47.5q75 0 144 44.5t106 95.5
l181 -191q-78 -98 -202.5 -165t-273.5 -67zM11 470v179h874v-179h-874zM11 799v177h874v-177h-874z" />
    <glyph glyph-name="uni20B9" unicode="&#x20b9;" horiz-adv-x="1339" 
d="M702 0l-217 616h-434v242h439q121 0 175 50.5t54 156.5q0 109 -59 159t-168 50h-441v172h499q270 0 420 -103.5t150 -289.5q0 -94 -35 -168t-94 -126.5t-133 -80.5q-16 -6 -6 -33l270 -645h-420zM51 989v160l1233 1v-161h-1233zM51 1286v160h1233v-160h-1233z" />
    <glyph glyph-name="uni20BA" unicode="&#x20ba;" horiz-adv-x="1392" 
d="M285 0v1446h388v-1164h58q103 4 188 82.5t138 221.5l298 -62q-38 -104 -98 -198t-151 -168t-219 -116t-302 -42h-300zM126 373l-62 170l870 317l61 -170zM92 686l-62 170l872 317l63 -169z" />
    <glyph glyph-name="uni2113" unicode="&#x2113;" horiz-adv-x="1198" 
d="M639 -19q-186 0 -288.5 78t-140.5 237l-94 -64l-74 182l165 125v416q0 172 57.5 285.5t160 169.5t237.5 56q132 0 209 -47t110.5 -126t33.5 -173q0 -110 -38 -201t-102.5 -169.5t-147 -150.5t-172.5 -144q0 -122 33 -173.5t132 -51.5q74 0 143.5 41t143.5 127l109 -113
q-15 -39 -48.5 -90t-90 -100t-140 -81.5t-198.5 -32.5zM555 720q51 50 95 99.5t76 101.5t50 105.5t18 110.5q0 60 -24.5 96t-79.5 36q-39 0 -69.5 -25.5t-48 -89.5t-17.5 -180v-254z" />
    <glyph glyph-name="uni2116" unicode="&#x2116;" horiz-adv-x="2393" 
d="M148 0v1446h341l612 -882v882h340v-1446h-307l-645 928v-928h-341zM1991 796q-99 0 -174.5 42.5t-117 117.5t-41.5 172q0 101 43.5 177t119 118.5t170.5 42.5q101 0 176 -43.5t117 -120t42 -174.5q0 -97 -42 -172t-117.5 -117.5t-175.5 -42.5zM1991 937q59 0 87 48
t28 147t-28 147t-87 48q-57 0 -85 -48t-28 -147t28 -147t85 -48z" />
    <glyph glyph-name="uni2117" unicode="&#x2117;" horiz-adv-x="1674" 
d="M828 -20q-154 0 -289 57.5t-237 159.5t-159.5 237t-57.5 290q0 153 57.5 287.5t159.5 236.5t237 160t289 58q153 0 287.5 -58t237 -160t160.5 -236.5t58 -287.5q0 -155 -58 -290t-160.5 -237t-237 -159.5t-287.5 -57.5zM828 161q120 0 220.5 39t173.5 113t112.5 178
t39.5 233q0 128 -39.5 231.5t-112.5 178.5t-173.5 115t-220.5 40q-123 0 -223 -40t-172 -115t-111 -178.5t-39 -231.5q0 -129 39 -233t111 -178t172 -113t223 -39zM536 338v770h360q84 0 154 -27t111.5 -83.5t41.5 -145.5q0 -124 -79 -189t-205 -65h-172v-260h-211zM747 747
h143q45 0 71.5 27.5t26.5 78.5q0 56 -30.5 79t-73.5 23h-137v-208z" />
    <glyph glyph-name="uni2120" unicode="&#x2120;" horiz-adv-x="2048" 
d="M975 0v904h314l176 -598l178 598h312v-904h-213v673l-198 -673h-159l-196 671v-671h-214zM446 -13q-92 0 -178 31t-144.5 93t-67.5 156h218q12 -55 59 -85t126 -30q54 0 102 23t48 75q0 42 -33.5 61.5t-85.5 29.5l-161 32q-115 23 -180.5 86t-65.5 175q0 89 48.5 151.5
t132 96t187.5 33.5q115 0 196 -36t123.5 -99.5t43.5 -144.5h-212q-4 41 -24.5 66t-54 37t-78.5 12q-74 0 -106.5 -29t-32.5 -64q0 -34 25 -57t85 -34l146 -28q137 -24 198.5 -94t61.5 -172q0 -85 -48.5 -149t-133.5 -100t-194 -36z" />
    <glyph glyph-name="trademark" unicode="&#x2122;" horiz-adv-x="1943" 
d="M870 0v904h314l176 -598l178 598h312v-904h-213v673l-197 -673h-160l-196 671v-671h-214zM285 0v716h-265v188h741v-188h-263v-716h-213z" />
    <glyph glyph-name="uni2126" unicode="&#x2126;" horiz-adv-x="1536" 
d="M103 0v290h259q-35 29 -73.5 67.5t-75.5 87.5t-66.5 109t-47.5 129.5t-18 149.5q0 125 46 244.5t135 215.5t218 153.5t294 57.5q172 0 299.5 -60.5t212.5 -159.5t127.5 -217t42.5 -232q0 -82 -18 -154.5t-54 -138t-90.5 -128t-127.5 -124.5h268v-290h-613v250
q42 31 85.5 79t80.5 114t59.5 153t22.5 197t-22 192.5t-61.5 136.5t-93.5 81.5t-118 27.5q-62 0 -117.5 -26t-98 -80t-66.5 -138.5t-24 -202.5q0 -125 32.5 -226.5t88.5 -178.5t128 -129v-250h-614z" />
    <glyph glyph-name="uni2153" unicode="&#x2153;" horiz-adv-x="1888" 
d="M197 536v661h-156v117q114 0 169 36t63 96h142v-910h-218zM427 -8l-194 3l975 1467h191zM1436 -14q-175 0 -267 81t-93 223h205q14 -74 57 -103t99 -29q77 0 119.5 31t42.5 79q0 46 -40 76t-110 33l-90 4v169l80 5q43 2 75 16t48.5 37t16.5 54q0 46 -42.5 70t-101.5 24
q-40 0 -73 -12t-54 -41.5t-25 -81.5h-204q0 102 47.5 168t129.5 99t185 33q105 0 187.5 -26t130.5 -80.5t48 -142.5q0 -67 -37 -117t-124 -79q69 -19 125 -70.5t56 -145.5q0 -92 -53.5 -153t-142.5 -91t-195 -30z" />
    <glyph glyph-name="uni2154" unicode="&#x2154;" horiz-adv-x="2217" 
d="M56 538v100v50q0 81 34 136.5t88 94.5t114.5 68t114.5 55.5t88 58t34 74.5q0 48 -33 78.5t-90 30.5q-58 0 -103 -34.5t-58 -112.5h-204q0 91 40.5 164t122.5 116t207 43q161 0 252.5 -78t91.5 -204q0 -80 -33.5 -134t-85 -90t-110.5 -62t-111 -49t-85.5 -51.5
t-33.5 -70.5v-3h456v-180h-696zM756 -8l-194 3l975 1467h191zM1766 -14q-175 0 -267 81t-93 223h205q14 -74 57 -103t99 -29q77 0 119.5 31t42.5 79q0 46 -40 76t-110 33l-90 4v169l80 5q43 2 75 16t48.5 37t16.5 54q0 46 -42.5 70t-101.5 24q-40 0 -73 -12t-54 -41.5
t-25 -81.5h-204q0 102 47.5 168t129.5 99t185 33q105 0 187.5 -26t130.5 -80.5t48 -142.5q0 -67 -37 -117t-124 -79q69 -19 125 -70.5t56 -145.5q0 -92 -53.5 -153t-142.5 -91t-195 -30z" />
    <glyph glyph-name="oneeighth" unicode="&#x215b;" horiz-adv-x="1889" 
d="M197 536v661h-156v117q114 0 169 36t63 96h142v-910h-218zM427 -8l-194 3l975 1467h191zM1453 -9q-169 0 -273 71t-104 195q0 52 25.5 97.5t64 77.5t77.5 41q-53 27 -90 75t-37 115q0 125 96 191.5t241 66.5q146 0 241.5 -66.5t95.5 -191.5q0 -67 -37 -115t-90 -75
q40 -9 78 -41t63 -77.5t25 -97.5q0 -124 -103.5 -195t-272.5 -71zM1453 148q69 0 108 31.5t39 84.5q0 54 -39 86.5t-108 32.5q-70 0 -109 -32.5t-39 -86.5q0 -53 39 -84.5t109 -31.5zM1453 554q54 0 88.5 30.5t34.5 82.5t-35 83t-88 31q-52 0 -87.5 -31t-35.5 -83t35 -82.5
t88 -30.5z" />
    <glyph glyph-name="threeeighths" unicode="&#x215c;" horiz-adv-x="2148" 
d="M420 526q-175 0 -267 81t-93 223h205q14 -74 57 -103t99 -29q77 0 119.5 31t42.5 79q0 46 -40 76t-110 33l-90 4v169l80 5q43 2 75 16t48.5 37t16.5 54q0 46 -42.5 70t-101.5 24q-40 0 -73 -12.5t-54 -41.5t-25 -81h-204q0 102 47.5 168t129.5 99t185 33q105 0 187.5 -26
t130.5 -80.5t48 -142.5q0 -67 -37 -117t-124 -79q69 -19 125 -70.5t56 -145.5q0 -92 -53.5 -153t-142.5 -91t-195 -30zM686 -8l-194 3l975 1467h191zM1712 -9q-169 0 -273 71t-104 195q0 52 25.5 97.5t64 77.5t77.5 41q-53 27 -90 75t-37 115q0 125 96 191.5t241 66.5
q146 0 241.5 -66.5t95.5 -191.5q0 -67 -37 -115t-90 -75q40 -9 78 -41t63 -77.5t25 -97.5q0 -124 -103.5 -195t-272.5 -71zM1712 148q69 0 108 31.5t39 84.5q0 54 -39 86.5t-108 32.5q-70 0 -109 -32.5t-39 -86.5q0 -53 39 -84.5t109 -31.5zM1712 554q54 0 88.5 30.5
t34.5 82.5t-35 83t-88 31q-52 0 -87.5 -31t-35.5 -83t35 -82.5t88 -30.5z" />
    <glyph glyph-name="fiveeighths" unicode="&#x215d;" horiz-adv-x="2141" 
d="M449 524q-139 0 -245.5 58t-153.5 147l165 104q39 -59 86.5 -99t123.5 -40q75 0 119.5 37.5t44.5 94.5q0 54 -42.5 92.5t-116.5 38.5q-36 0 -67 -9t-74 -37q-11 -4 -15 -4t-16 6l-150 75l42 458h604l-9 -175h-427l-16 -182q52 20 93.5 30.5t92.5 10.5q95 0 168.5 -35
t115.5 -101t42 -161q0 -145 -98.5 -227t-266.5 -82zM679 -8l-194 3l975 1467h191zM1705 -9q-169 0 -273 71t-104 195q0 52 25.5 97.5t64 77.5t77.5 41q-53 27 -90 75t-37 115q0 125 96 191.5t241 66.5q146 0 241.5 -66.5t95.5 -191.5q0 -67 -37 -115t-90 -75q40 -9 78 -41
t63 -77.5t25 -97.5q0 -124 -103.5 -195t-272.5 -71zM1705 148q69 0 108 31.5t39 84.5q0 54 -39 86.5t-108 32.5q-70 0 -109 -32.5t-39 -86.5q0 -53 39 -84.5t109 -31.5zM1705 554q54 0 88.5 30.5t34.5 82.5t-35 83t-88 31q-52 0 -87.5 -31t-35.5 -83t35 -82.5t88 -30.5z" />
    <glyph glyph-name="seveneighths" unicode="&#x215e;" horiz-adv-x="1976" 
d="M206 538q4 70 34.5 189t97.5 262t178 283h-475v176h698v-175q-51 -60 -103.5 -151.5t-97 -195.5t-72 -206t-28.5 -182h-232zM514 -8l-194 3l975 1467h191zM1540 -9q-169 0 -273 71t-104 195q0 52 25.5 97.5t64 77.5t77.5 41q-53 27 -90 75t-37 115q0 125 96 191.5
t241 66.5q146 0 241.5 -66.5t95.5 -191.5q0 -67 -37 -115t-90 -75q40 -9 78 -41t63 -77.5t25 -97.5q0 -124 -103.5 -195t-272.5 -71zM1540 148q69 0 108 31.5t39 84.5q0 54 -39 86.5t-108 32.5q-70 0 -109 -32.5t-39 -86.5q0 -53 39 -84.5t109 -31.5zM1540 554
q54 0 88.5 30.5t34.5 82.5t-35 83t-88 31q-52 0 -87.5 -31t-35.5 -83t35 -82.5t88 -30.5z" />
    <glyph glyph-name="partialdiff" unicode="&#x2202;" horiz-adv-x="1224" 
d="M578 -20q-160 0 -272 63.5t-171 172t-59 243.5q0 134 56 242.5t160 171.5t250 63q67 0 113.5 -13t80.5 -34t65 -44q23 -18 28.5 -9.5t5.5 22.5q0 58 -19.5 121t-62.5 117.5t-112.5 89t-169.5 34.5q-96 0 -158.5 -29t-107.5 -58l-92 198q29 25 87.5 56.5t142 55
t186.5 23.5q178 0 316 -81.5t216.5 -248.5t78.5 -424q0 -220 -62 -384.5t-186.5 -256t-313.5 -91.5zM570 218h2q66 0 115 40t79 110.5t39 163.5q3 30 1 42.5t-13 27.5q-17 28 -45.5 54t-66 42t-80.5 16q-61 0 -107 -35.5t-72 -96.5t-26 -137q0 -74 23.5 -124.5t62.5 -76.5
t88 -26z" />
    <glyph glyph-name="emptyset" unicode="&#x2205;" horiz-adv-x="1211" 
d="M179 226l-108 113l940 869l104 -111zM599 261q-128 0 -233.5 63t-168.5 169t-63 235q0 128 63 233.5t168.5 168.5t233.5 63q129 0 235 -63t169 -168.5t63 -233.5q0 -129 -63 -235t-169 -169t-235 -63zM599 410q88 0 160 43t115 115t43 160q0 86 -43 158t-115 115t-160 43
q-87 0 -159 -43t-114.5 -115t-42.5 -158q0 -88 42.5 -160t114.5 -115t159 -43z" />
    <glyph glyph-name="uni2206" unicode="&#x2206;" horiz-adv-x="1603" 
d="M32 0l786 1446l753 -1446h-1539zM525 281h568l-275 559z" />
    <glyph glyph-name="product" unicode="&#x220f;" horiz-adv-x="1434" 
d="M209 0v1169h-171v277h1341v-277h-173v-1169h-349v1169h-298v-1169h-350z" />
    <glyph glyph-name="summation" unicode="&#x2211;" horiz-adv-x="1184" 
d="M58 0v203l410 513l-388 503v227h995v-270h-532l348 -421l-388 -469h608v-286h-1053z" />
    <glyph glyph-name="minus" unicode="&#x2212;" horiz-adv-x="1207" 
d="M113 605v245h981v-244z" />
    <glyph glyph-name="uni2215" unicode="&#x2215;" horiz-adv-x="1233" 
d="M278 -8l-194 3l874 1467h192z" />
    <glyph glyph-name="uni2219" unicode="&#x2219;" horiz-adv-x="741" 
d="M358 564q-69 0 -118.5 49.5t-49.5 119.5q0 69 49.5 118.5t118.5 49.5t118.5 -49.5t49.5 -118.5q0 -70 -49.5 -119.5t-118.5 -49.5z" />
    <glyph glyph-name="radical" unicode="&#x221a;" horiz-adv-x="1418" 
d="M550 -322l-291 796l-161 -60l-68 187l413 147l272 -761l414 1665h282l-519 -1974h-342z" />
    <glyph glyph-name="infinity" unicode="&#x221e;" horiz-adv-x="1640" 
d="M440 168q-93 0 -172.5 45t-127.5 128t-48 195q0 111 48.5 194.5t132.5 129.5t193 46q80 0 137 -25t103 -67.5t94 -94.5q17 -18 26 -17.5t25 17.5q36 41 82 84.5t107.5 73t146.5 29.5q98 0 176 -44t123 -124t45 -189v-3q0 -120 -50 -204.5t-132.5 -129t-179.5 -44.5
q-80 0 -138 27.5t-105 73.5t-95 101q-11 14 -17.5 15.5t-20.5 -15.5q-14 -14 -42.5 -47t-72 -68.5t-103 -61t-135.5 -25.5zM461 372h5q39 0 76 20t67.5 49.5t49.5 56.5q16 22 15 33.5t-17 37.5q-43 65 -90.5 102t-107.5 37q-69 0 -112 -46.5t-43 -119.5q0 -75 45.5 -122.5
t111.5 -47.5zM1176 372q46 0 78 25.5t48.5 64t16.5 78.5q0 66 -40 117t-109 51h-2q-61 0 -110 -43.5t-89 -88.5q-16 -20 -13 -37.5t13 -31.5q43 -59 82.5 -88t71.5 -38t53 -9z" />
    <glyph glyph-name="integral" unicode="&#x222b;" horiz-adv-x="964" 
d="M248 -344q-51 0 -92 7t-73 18t-56 25l69 277q25 -14 57.5 -25t75.5 -11q54 0 82.5 43t28.5 163t-6.5 255t-16 268.5t-16 253.5t-6.5 210q0 177 42.5 295t131 177.5t226.5 59.5q54 0 96 -7t74.5 -19t54.5 -26l-65 -276q-28 14 -61 25.5t-78 11.5q-55 0 -83.5 -43.5
t-28.5 -157.5q0 -125 6.5 -259t15 -264.5t15 -247.5t6.5 -207q0 -183 -43 -304t-131.5 -181.5t-224.5 -60.5z" />
    <glyph glyph-name="approxequal" unicode="&#x2248;" horiz-adv-x="1250" 
d="M210 693l-97 165q81 86 158.5 142.5t178.5 56.5q63 0 111.5 -20t90 -45.5t81.5 -45t87 -19.5q71 0 126 45.5t93 108.5l98 -163q-56 -101 -140 -151.5t-170 -50.5q-60 0 -109 20t-92 46t-86 46t-94 20q-76 0 -131 -48.5t-105 -106.5zM211 261l-98 166q81 86 158.5 142
t178.5 56q63 0 111.5 -19.5t90 -45t81.5 -45.5t87 -20q71 0 126 45.5t93 109.5l98 -163q-56 -101 -140 -151.5t-170 -50.5q-61 0 -109.5 20t-92 46t-86.5 46t-93 20q-76 0 -131.5 -49t-103.5 -107z" />
    <glyph glyph-name="notequal" unicode="&#x2260;" horiz-adv-x="1207" 
d="M200 45l559 1270h157l-551 -1270h-165zM113 795v244h981v-244h-981zM113 331v244l981 1v-245h-981z" />
    <glyph glyph-name="lessequal" unicode="&#x2264;" horiz-adv-x="1207" 
d="M1074 378l-957 372v276l957 370v-286l-590 -225l590 -219v-288zM113 39v243h981v-243h-981z" />
    <glyph glyph-name="greaterequal" unicode="&#x2265;" horiz-adv-x="1207" 
d="M132 378v288l592 219l-592 225v286l958 -370v-276zM113 39v243h981v-243h-981z" />
    <glyph glyph-name="lozenge" unicode="&#x25ca;" horiz-adv-x="1173" 
d="M494 0l-365 724l374 722h217l366 -718l-376 -728h-216zM609 236l227 488l-227 480l-225 -475z" />
    <glyph glyph-name="i.loclTRK" horiz-adv-x="550" 
d="M113 0v1034h325v-1034h-325zM119 1182v264h320v-264h-320z" />
    <glyph glyph-name="g.ss01" horiz-adv-x="1222" 
d="M573 -336q-117 0 -204 35t-145 89t-87.5 111t-31.5 99h311q5 -30 47 -59t107 -30q79 0 131 31t78 81t26 106v55q-43 -76 -124 -102t-183 -26q-79 0 -154.5 36.5t-136 102.5t-96.5 156t-36 199q-1 88 25 177t79.5 163.5t132.5 119t184 44.5q65 0 122 -22.5t100.5 -56.5
t64.5 -69v128h336v-827q0 -165 -70 -286.5t-193 -188t-283 -66.5zM607 294q63 0 102 31.5t57 84.5t18 116l-1 54q0 58 -23 112.5t-63.5 90t-92.5 35.5q-62 0 -103.5 -38.5t-62.5 -99.5t-21 -132q0 -69 24 -126.5t66.5 -92.5t99.5 -35z" />
    <glyph glyph-name="l.ss01" horiz-adv-x="643" 
d="M151 0v1486h341v-1486h-341z" />
    <glyph glyph-name="zero.osf" horiz-adv-x="1319" 
d="M661 -22q-273 0 -425 193.5t-152 547.5q0 238 69.5 405t199 254.5t309.5 87.5q268 0 420.5 -194.5t152.5 -551.5q0 -355 -150.5 -548.5t-423.5 -193.5zM660 252q119 0 170 106t51 360q0 262 -52 373t-169 111t-170 -112t-53 -372q0 -252 52.5 -359t170.5 -107z" />
    <glyph glyph-name="one.osf" horiz-adv-x="876" 
d="M332 0v1053h-249v184q122 0 200.5 26t120 73t49.5 110h222v-1446h-343z" />
    <glyph glyph-name="two.osf" horiz-adv-x="1305" 
d="M107 0v158v81q0 110 41 189.5t108 138.5t147.5 103.5t161 82t147.5 75t108 82t41 105.5q0 75 -53 124t-145 49q-94 0 -165.5 -55.5t-91.5 -178.5h-323q1 144 65.5 260t194.5 184t328 68q170 0 292.5 -56.5t188.5 -157.5t66 -234q0 -109 -39.5 -187t-105 -133.5
t-143 -95.5t-155.5 -73t-143.5 -66t-105 -74t-39.5 -99v-7h726v-283h-1106z" />
    <glyph glyph-name="three.osf" horiz-adv-x="1361" 
d="M655 -20q-185 0 -311.5 58t-192.5 166t-67 260h324q22 -119 90.5 -166t158.5 -47q81 0 139 23t88.5 63t30.5 93q0 50 -29.5 88.5t-83.5 60.5t-126 25l-141 7v266l125 8q70 4 120.5 26t77.5 59t27 88q0 48 -31.5 82t-83.5 51.5t-116 17.5q-65 0 -117.5 -20t-85.5 -67
t-40 -129h-323q0 162 76 267.5t206.5 156.5t291.5 51q167 0 299 -41t208.5 -128.5t76.5 -225.5q0 -106 -59.5 -186t-199.5 -127q74 -20 140 -63t108.5 -112t42.5 -168q0 -110 -49.5 -192t-136 -136.5t-199 -81.5t-238.5 -27z" />
    <glyph glyph-name="four.osf" horiz-adv-x="1338" 
d="M741 0l1 298h-659v272l653 876h331v-867h216v-281h-216v-298h-326zM395 579h349v466z" />
    <glyph glyph-name="five.osf" horiz-adv-x="1381" 
d="M716 -22q-146 0 -271.5 42.5t-218 116t-142.5 167.5l259 165q41 -61 87 -111.5t106.5 -80t142.5 -29.5q118 0 190 60.5t72 151.5q0 57 -31 105.5t-88 77.5t-136 29q-38 0 -71.5 -6.5t-70 -22.5t-83.5 -45q-16 -7 -23 -6.5t-25 8.5l-238 120l67 726h958l-14 -276h-680
l-25 -294q84 34 150.5 51t148.5 17q150 0 267 -55.5t183.5 -161t66.5 -255.5q0 -154 -71 -264.5t-201 -170t-309 -59.5z" />
    <glyph glyph-name="six.osf" horiz-adv-x="1355" 
d="M700 -22q-192 0 -330.5 89.5t-212 250.5t-73.5 375q0 240 76 413.5t216.5 266.5t333.5 93q143 0 264 -52t196 -149t79 -235h-309q-26 87 -81 129t-141 42q-93 0 -155 -53.5t-87.5 -144.5t-11.5 -203q36 36 85.5 60t106.5 36.5t117 12.5q149 0 261 -55t174.5 -153
t62.5 -229q0 -140 -73 -252t-202 -177t-296 -65zM687 234q60 0 111.5 28.5t82.5 79t31 114.5q0 71 -31.5 116t-82.5 66.5t-110 21.5q-53 0 -104 -23.5t-84 -57t-33 -65.5q0 -90 27.5 -152.5t77.5 -95t115 -32.5z" />
    <glyph glyph-name="seven.osf" horiz-adv-x="1276" 
d="M347 0q4 83 32 212.5t86 288.5t151 330.5t226 338.5h-759v276h1110v-276q-65 -76 -132 -185.5t-129 -237.5t-111 -260.5t-78 -258t-30 -228.5h-366z" />
    <glyph glyph-name="eight.osf" horiz-adv-x="1363" 
d="M681 -21q-179 0 -313 52t-209 148t-75 227q0 82 40 155.5t102 123.5t125 64q-83 42 -144 119t-61 186q0 133 70 225t191.5 139.5t273.5 47.5q153 0 274 -47.5t191 -139.5t70 -225q0 -109 -60 -186t-145 -119q64 -14 125.5 -64t102 -123.5t40.5 -155.5q0 -131 -74.5 -227
t-209.5 -148t-314 -52zM681 232q112 0 174.5 50.5t62.5 134.5q0 56 -28.5 99t-81 67t-127.5 24q-73 0 -126 -24t-81.5 -67t-28.5 -99q0 -84 63 -134.5t173 -50.5zM681 877q84 0 140.5 48.5t56.5 133.5t-56.5 134.5t-140.5 49.5q-83 0 -140 -49.5t-57 -134.5t57 -133.5
t140 -48.5z" />
    <glyph glyph-name="nine.osf" horiz-adv-x="1349" 
d="M636 -22q-142 0 -264.5 55t-199.5 154t-81 231h321q15 -77 70 -126t139 -49q93 0 165.5 41t110 133t25.5 245q-31 -43 -77.5 -74t-108 -48t-137.5 -17q-149 0 -265 56t-182 158t-66 240q0 141 71 251.5t198 174t295 63.5q192 0 330 -88t211.5 -247.5t73.5 -374.5
q0 -266 -77 -438.5t-217.5 -256t-334.5 -83.5zM661 789q54 0 104.5 23.5t84 57t33.5 64.5q0 92 -27.5 154t-77.5 94t-116 32q-59 0 -107 -28t-76 -78t-28 -115q0 -99 61.5 -151.5t148.5 -52.5z" />
    <glyph glyph-name="zero.tf" horiz-adv-x="1400" 
d="M701 -22q-273 0 -425 193.5t-152 547.5q0 238 69.5 405t199 254.5t309.5 87.5q268 0 420.5 -194.5t152.5 -551.5q0 -355 -150.5 -548.5t-423.5 -193.5zM700 252q119 0 170 106t51 360q0 262 -52 373t-169 111t-170 -112t-53 -372q0 -252 52.5 -359t170.5 -107z" />
    <glyph glyph-name="one.tf" horiz-adv-x="1400" 
d="M567 0v1083l-369 -96v290l570 169h128v-1446h-329zM178 0v283h1056v-283h-1056z" />
    <glyph glyph-name="two.tf" horiz-adv-x="1400" 
d="M168 0v158v81q0 110 41 189.5t108 138.5t147.5 103.5t161 82t147.5 75t108 82t41 105.5q0 75 -53 124t-145 49q-94 0 -165.5 -55.5t-91.5 -178.5h-323q1 144 65.5 260t194.5 184t328 68q170 0 292.5 -56.5t188.5 -157.5t66 -234q0 -109 -39.5 -187t-105 -133.5
t-143 -95.5t-155.5 -73t-143.5 -66t-105 -74t-39.5 -99v-7h726v-283h-1106z" />
    <glyph glyph-name="three.tf" horiz-adv-x="1400" 
d="M684 -22q-185 0 -311.5 58t-192.5 166t-67 260h324q22 -119 90.5 -166t158.5 -47q81 0 139 23t88.5 63t30.5 93q0 50 -29.5 88.5t-83.5 60.5t-126 25l-141 7v266l125 8q70 4 120.5 26t77.5 59t27 88q0 48 -31.5 82t-83.5 51.5t-116 17.5q-65 0 -117.5 -20t-85.5 -67
t-40 -129h-323q0 162 76 267.5t206.5 156.5t291.5 51q167 0 299 -41t208.5 -128.5t76.5 -225.5q0 -106 -59.5 -186t-199.5 -127q74 -20 140 -63t108.5 -112t42.5 -168q0 -110 -49.5 -192t-136 -136.5t-199 -81.5t-238.5 -27z" />
    <glyph glyph-name="four.tf" horiz-adv-x="1400" 
d="M756 0l1 298h-659v272l653 876h331v-867h216v-281h-216v-298h-326zM410 579h349v466z" />
    <glyph glyph-name="five.tf" horiz-adv-x="1400" 
d="M768 -22q-146 0 -271.5 42.5t-218 116t-142.5 167.5l259 165q41 -61 87 -111.5t106.5 -80t142.5 -29.5q118 0 190 60.5t72 151.5q0 57 -31 105.5t-88 77.5t-136 29q-38 0 -71.5 -6.5t-70 -22.5t-83.5 -45q-16 -7 -23 -6.5t-25 8.5l-238 120l67 726h958l-14 -276h-680
l-25 -294q84 34 150.5 51t148.5 17q150 0 267 -55.5t183.5 -161t66.5 -255.5q0 -154 -71 -264.5t-201 -170t-309 -59.5z" />
    <glyph glyph-name="six.tf" horiz-adv-x="1400" 
d="M723 -22q-192 0 -330.5 89.5t-212 250.5t-73.5 375q0 240 76 413.5t216.5 266.5t333.5 93q143 0 264 -52t196 -149t79 -235h-309q-26 87 -81 129t-141 42q-93 0 -155 -53.5t-87.5 -144.5t-11.5 -203q36 36 85.5 60t106.5 36.5t117 12.5q149 0 261 -55t174.5 -153
t62.5 -229q0 -140 -73 -252t-202 -177t-296 -65zM710 234q60 0 111.5 28.5t82.5 79t31 114.5q0 71 -31.5 116t-82.5 66.5t-110 21.5q-53 0 -104 -23.5t-84 -57t-33 -65.5q0 -90 27.5 -152.5t77.5 -95t115 -32.5z" />
    <glyph glyph-name="seven.tf" horiz-adv-x="1400" 
d="M376 0q4 83 42.5 212.5t110 288.5t174.5 330.5t236 338.5h-827v276h1178v-276q-65 -76 -138.5 -185.5t-145.5 -237.5t-131 -260.5t-94.5 -258t-36.5 -228.5h-368z" />
    <glyph glyph-name="eight.tf" horiz-adv-x="1400" 
d="M700 -21q-179 0 -313 52t-209 148t-75 227q0 82 40 155.5t102 123.5t125 64q-83 42 -144 119t-61 186q0 133 70 225t191.5 139.5t273.5 47.5q153 0 274 -47.5t191 -139.5t70 -225q0 -109 -60 -186t-145 -119q64 -14 125.5 -64t102 -123.5t40.5 -155.5q0 -131 -74.5 -227
t-209.5 -148t-314 -52zM700 232q112 0 174.5 50.5t62.5 134.5q0 56 -28.5 99t-81 67t-127.5 24q-73 0 -126 -24t-81.5 -67t-28.5 -99q0 -84 63 -134.5t173 -50.5zM700 877q84 0 140.5 48.5t56.5 133.5t-56.5 134.5t-140.5 49.5q-83 0 -140 -49.5t-57 -134.5t57 -133.5
t140 -48.5z" />
    <glyph glyph-name="nine.tf" horiz-adv-x="1400" 
d="M668 -22q-142 0 -264.5 55t-199.5 154t-81 231h321q15 -77 70 -126t139 -49q93 0 165.5 41t110 133t25.5 245q-31 -43 -77.5 -74t-108 -48t-137.5 -17q-149 0 -265 56t-182 158t-66 240q0 141 71 251.5t198 174t295 63.5q192 0 330 -88t211.5 -247.5t73.5 -374.5
q0 -266 -77 -438.5t-217.5 -256t-334.5 -83.5zM693 789q54 0 104.5 23.5t84 57t33.5 64.5q0 92 -27.5 154t-77.5 94t-116 32q-59 0 -107 -28t-76 -78t-28 -115q0 -99 61.5 -151.5t148.5 -52.5z" />
    <glyph glyph-name="zero.subs" horiz-adv-x="825" 
d="M414 -342q-173 0 -268.5 120.5t-95.5 341.5q0 223 96.5 347t267.5 124q170 0 265.5 -124t95.5 -346q0 -221 -94 -342t-267 -121zM413 -171q75 0 106.5 67t31.5 223q0 162 -32.5 233t-105.5 71q-74 0 -106.5 -71.5t-32.5 -232.5q0 -156 32 -223t107 -67z" />
    <glyph glyph-name="one.subs" horiz-adv-x="528" 
d="M197 -331v661h-156v117q114 0 169 36t63 96h142v-910h-218z" />
    </font>
</defs>
</svg>
