<?xml version="1.0" standalone="no"?>
<!DOCTYPE svg PUBLIC "-//W3C//DTD SVG 1.1//EN" "http://www.w3.org/Graphics/SVG/1.1/DTD/svg11.dtd" >
<svg xmlns="http://www.w3.org/2000/svg" xmlns:xlink="http://www.w3.org/1999/xlink" version="1.1">
<metadata>
Created by FontForge 20190801 at Fri Apr 29 23:32:12 2022
 By www-data
Copyright 2015 The Public Sans Project Authors (https://github.com/uswds/public-sans)
</metadata>
<defs>
<font id="PublicSansThinItalic" horiz-adv-x="0" >
  <font-face 
    font-family="PublicSansThinItalic"
    font-weight="250"
    font-style="italic"
    font-stretch="normal"
    units-per-em="2000"
    panose-1="0 0 0 0 0 0 0 0 0 0"
    ascent="1600"
    descent="-400"
    x-height="1034"
    cap-height="1446"
    bbox="-367 -480 2202 2023"
    underline-thickness="140"
    underline-position="-440"
    slope="-8"
    unicode-range="U+000D-FB02"
  />
<missing-glyph horiz-adv-x="1697" 
d="M412 1652h918q36 0 36 -42v-1876q0 -56 -66 -56h-872q-31 0 -42.5 12t-11.5 36v1880q0 46 38 46zM1264 -114v1634q0 34 -30 34h-686zM476 1433v-1617q0 -19 9.5 -29.5t34.5 -10.5h671z" />
    <glyph glyph-name="fi" unicode="fi" horiz-adv-x="1192" 
d="M250 0l135 966h-228l11 68h225l25 172q17 120 73 180t164 60h139l-9 -68h-157q-67 0 -96.5 -40.5t-40.5 -115.5l-26 -188h262l-10 -68h-261l-135 -966h-71zM858 0l146 1034h73l-145 -1034h-74zM1038 1326l16 120h88l-16 -120h-88z" />
    <glyph glyph-name="fl" unicode="fl" horiz-adv-x="1279" 
d="M250 0l135 966h-228l11 68h225l25 172q17 120 73 180t164 60h139l-9 -68h-157q-67 0 -96.5 -40.5t-40.5 -115.5l-26 -188h262l-10 -68h-261l-135 -966h-71zM1026 -8q-47 0 -78 19t-47.5 53t-20 79.5t3.5 98.5l176 1244h73l-177 -1244q-13 -100 15 -142t67 -42h58l-7 -58
q-19 -4 -36.5 -6t-26.5 -2z" />
    <glyph glyph-name=".notdef" horiz-adv-x="1697" 
d="M412 1652h918q36 0 36 -42v-1876q0 -56 -66 -56h-872q-31 0 -42.5 12t-11.5 36v1880q0 46 38 46zM1264 -114v1634q0 34 -30 34h-686zM476 1433v-1617q0 -19 9.5 -29.5t34.5 -10.5h671z" />
    <glyph glyph-name="uni0000" horiz-adv-x="54" 
 />
    <glyph glyph-name="uni0000" horiz-adv-x="54" 
 />
    <glyph glyph-name="nonmarkingreturn" horiz-adv-x="666" 
 />
    <glyph glyph-name="CR" unicode="&#xd;" horiz-adv-x="458" 
 />
    <glyph glyph-name="space" unicode=" " horiz-adv-x="520" 
 />
    <glyph glyph-name="exclam" unicode="!" horiz-adv-x="432" 
d="M155 288l146 1158h94l-182 -1158h-58zM89 0l20 154h112l-22 -154h-110z" />
    <glyph glyph-name="quotedbl" unicode="&#x22;" horiz-adv-x="730" 
d="M547 1072l16 374h138l-92 -374h-62zM275 1072l16 374h138l-92 -374h-62z" />
    <glyph glyph-name="numbersign" unicode="#" horiz-adv-x="1132" 
d="M732 -2l-74 12l222 1438l74 -10zM96 488v74h936v-74h-936zM336 -2l-74 12l222 1438l74 -10zM160 898v74h936v-74h-936z" />
    <glyph glyph-name="dollar" unicode="$" horiz-adv-x="1191" 
d="M530 -20q-181 0 -295.5 93t-120.5 261l78 18q17 -147 111 -217.5t239 -70.5q89 0 178 34.5t152.5 98.5t75.5 153q17 111 -30.5 185.5t-169.5 116.5l-230 80q-136 48 -207 125.5t-53 206.5q16 114 82.5 204.5t172 143t239.5 52.5q123 0 203 -54.5t117 -142t32 -187.5
l-74 -16q-4 108 -39.5 178.5t-99.5 105t-155 34.5q-79 0 -165.5 -33t-152 -103t-80.5 -180q-13 -93 40.5 -147.5t201.5 -110.5l216 -80q149 -55 199 -155t33 -219q-15 -106 -84 -190.5t-176.5 -134t-237.5 -49.5zM458 -228l36 258h82l-36 -258h-82zM704 1414l36 258h84
l-36 -258h-84z" />
    <glyph glyph-name="percent" unicode="%" horiz-adv-x="1618" 
d="M314 -8h-71l1105 1470h69zM431 638q-73 0 -128 36t-85.5 105t-30.5 168q0 90 21.5 182t66 168.5t112.5 123.5t160 47q74 0 128 -35.5t84 -103.5t30 -167q0 -86 -20.5 -178t-64 -170.5t-111 -127t-162.5 -48.5zM437 696q75 0 129.5 45t89 115t51.5 147t17 142
q0 119 -43.5 192t-143.5 73q-73 0 -127 -44.5t-89.5 -114t-52.5 -146t-17 -139.5q0 -120 43 -195t143 -75zM1130 -20q-73 0 -128 36t-85.5 105t-30.5 168q0 90 21.5 182t66 168.5t112.5 123.5t160 47q74 0 128 -35.5t84 -103.5t30 -167q0 -86 -20.5 -178t-64 -170.5
t-111 -127t-162.5 -48.5zM1136 38q75 0 129.5 45t89 115t51.5 147t17 142q0 119 -43.5 192t-143.5 73q-73 0 -127 -44.5t-89.5 -114t-52.5 -146t-17 -139.5q0 -120 43 -195t143 -75z" />
    <glyph glyph-name="ampersand" unicode="&#x26;" horiz-adv-x="1179" 
d="M380 -10q-114 0 -191 47t-111.5 131t-19.5 196q13 90 56 166.5t118 142t184 123.5q-48 63 -77.5 124.5t-40.5 123.5t-2 126q12 83 59 150.5t118.5 107.5t158.5 40q82 0 150.5 -36.5t105 -104t22.5 -161.5q-5 -37 -33 -98.5t-109.5 -138.5t-247.5 -161l308 -476
q26 24 67.5 83t80.5 150t58 211h62q-20 -117 -53 -205t-78 -158.5t-101 -134.5l152 -238h-88l-120 180q-108 -96 -214 -143t-214 -47zM398 64q101 0 198 48.5t178 123.5l-324 502q-129 -70 -214.5 -166t-103.5 -216q-18 -130 59 -211t207 -81zM488 828q136 76 209 134.5
t102.5 108.5t36.5 99q12 83 -18.5 131.5t-84.5 69.5t-113 21q-106 0 -171 -67t-77 -153q-9 -66 8.5 -129t43.5 -111t42 -70z" />
    <glyph glyph-name="quotesingle" unicode="'" horiz-adv-x="458" 
d="M275 1072l16 374h138l-92 -374h-62z" />
    <glyph glyph-name="parenleft" unicode="(" horiz-adv-x="517" 
d="M300 -208q-55 140 -89.5 277.5t-43 284.5t14.5 316q35 246 142 476t246 414h44q-118 -193 -214.5 -424.5t-129.5 -467.5q-31 -223 -10.5 -438.5t84.5 -437.5h-44z" />
    <glyph glyph-name="parenright" unicode=")" horiz-adv-x="537" 
d="M-48 -212q119 194 215 425.5t129 466.5q32 224 11.5 439t-85.5 437h44q55 -140 89.5 -277.5t43 -284.5t-14.5 -316q-34 -246 -141 -475.5t-247 -414.5h-44z" />
    <glyph glyph-name="asterisk" unicode="*" horiz-adv-x="628" 
d="M272 880l-64 42l172 222l-232 68l22 64l224 -82l-14 252h82l-10 -252l226 94l20 -62l-228 -80l166 -210l-64 -48l-146 232z" />
    <glyph glyph-name="plus" unicode="+" horiz-adv-x="980" 
d="M432 336l108 782h68l-108 -782h-68zM154 688l10 74l720 2l-10 -74z" />
    <glyph glyph-name="comma" unicode="," horiz-adv-x="395" 
d="M-24 -222l130 222h-66l22 160h152l-18 -136l-162 -246h-58z" />
    <glyph glyph-name="hyphen" unicode="-" horiz-adv-x="686" 
d="M122 478l10 78l432 2l-10 -78z" />
    <glyph glyph-name="period" unicode="." horiz-adv-x="352" 
d="M47 0l22 154h112l-22 -154h-112z" />
    <glyph glyph-name="slash" unicode="/" horiz-adv-x="592" 
d="M-59 -118l676 1564h76l-676 -1564h-76z" />
    <glyph glyph-name="zero" unicode="0" horiz-adv-x="1088" 
d="M467 -22q-197 0 -291.5 181.5t-42.5 556.5q36 253 114.5 419.5t189 248.5t241.5 82q196 0 291.5 -184t42.5 -562q-53 -376 -200.5 -559t-344.5 -183zM482 60q167 0 280.5 157t162.5 503q49 350 -22.5 507t-236.5 157t-282.5 -158t-166.5 -506q-48 -345 25.5 -502.5
t239.5 -157.5z" />
    <glyph glyph-name="one" unicode="1" horiz-adv-x="739" 
d="M303 0l172 1218h-276l10 78q124 0 188.5 14.5t90.5 47.5t34 88h63l-204 -1446h-78z" />
    <glyph glyph-name="two" unicode="2" horiz-adv-x="1048" 
d="M61 0l12 82l6 44q18 131 82.5 221.5t155 156.5t190 122t189.5 117t153.5 142t79.5 197q19 135 -57.5 217.5t-223.5 82.5q-108 0 -190 -44.5t-133.5 -120t-68.5 -169.5h-81q19 112 83.5 207t168 153t239.5 58q119 0 201 -48t119 -135t20 -203q-18 -131 -82.5 -221.5
t-155 -155.5t-189.5 -120.5t-189 -116.5t-152.5 -141.5t-79.5 -198.5l-6 -44h730l-12 -82h-809z" />
    <glyph glyph-name="three" unicode="3" horiz-adv-x="1118" 
d="M463 -22q-115 2 -204.5 53t-136.5 141.5t-36 211.5h82q-2 -145 81.5 -234.5t234.5 -89.5q115 0 206.5 40.5t150 113t71.5 168.5q16 113 -30 188t-135.5 112.5t-203.5 37.5h-113l12 82h113q104 0 195.5 43.5t152 113.5t71.5 149q10 68 -19 131.5t-98.5 104t-184.5 40.5
q-80 0 -163 -37.5t-144.5 -112t-77.5 -186.5h-81q18 125 88.5 219t172.5 146.5t213 52.5q128 0 217.5 -45t131 -125.5t26.5 -187.5q-15 -108 -96 -199t-218 -141q98 -30 158.5 -85t84.5 -130t11 -165q-13 -91 -57 -167t-114.5 -131t-161.5 -84t-199 -28z" />
    <glyph glyph-name="four" unicode="4" horiz-adv-x="1119" 
d="M668 0l58 418h-640l14 98l764 930h82l-131 -946h235l-12 -82h-236l-58 -418h-76zM176 500h555l115 812z" />
    <glyph glyph-name="five" unicode="5" horiz-adv-x="1138" 
d="M506 -22q-116 0 -207 50.5t-147 141t-66 210.5h86q15 -97 60.5 -170t119 -113.5t169.5 -40.5q165 0 281 109t144 307q17 123 -20.5 210.5t-110.5 134.5t-163 47q-68 0 -128.5 -13t-121 -53t-127.5 -122v0v0h-91l167 770h739l-11 -80h-661l-124 -586q71 89 167.5 125.5
t201.5 36.5q108 0 199 -52t139 -156t26 -260q-20 -148 -92.5 -259.5t-183 -174t-245.5 -62.5z" />
    <glyph glyph-name="six" unicode="6" horiz-adv-x="1099" 
d="M497 -22q-140 0 -233 85t-128.5 247.5t-3.5 395.5q32 227 109.5 398t198.5 266.5t284 95.5q97 0 173 -40t122.5 -115t53.5 -181h-75q-13 114 -87 186t-198 72q-140 0 -246.5 -85t-175.5 -258.5t-97 -438.5q34 99 99.5 175.5t151.5 119.5t181 43q128 0 216.5 -55.5
t127.5 -161t18 -255.5q-20 -148 -85.5 -259t-168.5 -173t-237 -62zM514 60q100 0 182.5 51t137 143t71.5 214q17 118 -6.5 206.5t-91 138t-184.5 49.5q-91 0 -178 -46.5t-148 -127t-76 -182.5q-19 -125 10.5 -226t102 -160.5t180.5 -59.5z" />
    <glyph glyph-name="seven" unicode="7" horiz-adv-x="1075" 
d="M265 0q38 110 107 267t163.5 341t211.5 378.5t252 379.5h-780l12 80h875l-13 -80q-96 -126 -192 -276t-184 -307t-162.5 -305t-128.5 -272t-81 -206h-80z" />
    <glyph glyph-name="eight" unicode="8" horiz-adv-x="1172" 
d="M509 -22q-146 0 -246.5 50.5t-147 141.5t-29.5 212q12 85 64 165t125 136.5t148 70.5q-96 42 -146.5 124t-32.5 206q17 121 84.5 206.5t169.5 130.5t220 45q120 0 208.5 -45t131.5 -130.5t26 -206.5q-17 -124 -89 -206t-181 -124q71 -14 128.5 -70.5t87.5 -136.5t18 -165
q-17 -121 -89 -212t-187.5 -141.5t-262.5 -50.5zM520 56q181 0 303 87.5t142 232.5q14 96 -25.5 171t-123.5 118t-205 43q-119 0 -215 -43t-156 -118t-74 -171q-20 -145 77.5 -232.5t276.5 -87.5zM624 798q153 0 256.5 76t122.5 214q20 138 -62.5 218t-234.5 80
q-151 0 -255.5 -80.5t-123.5 -217.5q-19 -138 63.5 -214t233.5 -76z" />
    <glyph glyph-name="nine" unicode="9" horiz-adv-x="1108" 
d="M435 -22q-96 0 -175 39t-127.5 113t-56.5 180h76q13 -114 91.5 -184t202.5 -70q141 0 249.5 84.5t179.5 257.5t99 438q-33 -99 -99 -175t-151.5 -119.5t-180.5 -43.5q-128 0 -216.5 55.5t-127 161t-17.5 255.5q21 148 85.5 259.5t167.5 174t237 62.5q140 0 232.5 -85.5
t127.5 -248.5t2 -396q-32 -227 -111 -397.5t-202 -265.5t-286 -95zM545 580q92 0 179 46.5t148 127t75 182.5q20 125 -10 226.5t-102 161.5t-180 60q-99 0 -181.5 -51.5t-137.5 -144t-72 -214.5q-25 -177 40.5 -285.5t240.5 -108.5z" />
    <glyph glyph-name="colon" unicode=":" horiz-adv-x="353" 
d="M164 820l22 156h112l-22 -156h-112zM48 6l22 154h112l-22 -154h-112z" />
    <glyph glyph-name="semicolon" unicode=";" horiz-adv-x="391" 
d="M11 -262l126 262h-50l20 154h112l-18 -136l-152 -280h-38zM193 820l20 156h114l-22 -156h-112z" />
    <glyph glyph-name="less" unicode="&#x3c;" horiz-adv-x="968" 
d="M812 348l-662 302l12 94l750 310l-12 -98l-634 -258l558 -260z" />
    <glyph glyph-name="equal" unicode="=" horiz-adv-x="981" 
d="M182 884l10 74l720 2l-10 -74zM122 454l10 74l720 2l-10 -74z" />
    <glyph glyph-name="greater" unicode="&#x3e;" horiz-adv-x="966" 
d="M108 348l14 90l630 260l-560 258l14 98l662 -310l-14 -94z" />
    <glyph glyph-name="question" unicode="?" horiz-adv-x="946" 
d="M370 292q16 117 66 204.5t115 159.5t130 139.5t113 143.5t62 173q18 126 -52.5 199t-205.5 73q-70 0 -142.5 -28.5t-131 -75.5t-86.5 -102l-70 38q74 114 193.5 182t248.5 68q116 0 195 -43.5t114.5 -123t20.5 -187.5q-15 -106 -65 -186.5t-116 -149.5t-132.5 -139
t-116.5 -153t-66 -192h-74zM312 0l22 154h110l-22 -154h-110z" />
    <glyph glyph-name="at" unicode="@" horiz-adv-x="1555" 
d="M695 -220q-162 0 -281 57t-194 157t-103.5 232t-7.5 282q23 158 94.5 299t181.5 249t249 170t296 62q113 0 218.5 -36.5t185.5 -112t117.5 -193.5t14.5 -282q-21 -150 -83 -264t-148.5 -178t-182.5 -64q-64 0 -98.5 24t-38.5 88q-1 14 -5 14.5t-15 -10.5
q-48 -61 -114.5 -102.5t-161.5 -41.5q-62 0 -111 42.5t-72 120t-8 181.5q18 127 76 229.5t142.5 162.5t180.5 60q74 0 124.5 -37.5t71.5 -102.5q0 -3 4.5 -2t7.5 8l32 84h74l-133 -458q-28 -99 -13 -137.5t70 -38.5q69 0 133.5 51t111.5 143.5t63 215.5q21 148 -11.5 253
t-102 171.5t-160 98t-184.5 31.5q-142 0 -264.5 -55.5t-217.5 -152.5t-156.5 -224t-81.5 -270q-17 -126 5.5 -240.5t87.5 -204.5t174.5 -141.5t266.5 -51.5q82 0 142.5 18t112 48t104.5 66l37 -68q-100 -72 -208 -111t-222 -39zM641 216q64 0 126 41t111 109.5t73 151.5
q32 112 18 183t-56 105t-94 34q-77 0 -140 -49.5t-105 -132t-57 -182.5q-18 -123 15.5 -191.5t108.5 -68.5z" />
    <glyph glyph-name="A" unicode="A" horiz-adv-x="1304" 
d="M42 0l690 1446h102l282 -1446h-79l-88 456h-610l-220 -456h-77zM377 542h557l-160 820z" />
    <glyph glyph-name="B" unicode="B" horiz-adv-x="1235" 
d="M147 0l204 1446h371q224 0 335 -97.5t85 -280.5q-18 -121 -88.5 -205.5t-221.5 -129.5q71 -13 122 -42t82 -73.5t42 -103.5t0 -132q-27 -192 -170 -287t-379 -95h-382zM231 82h295q213 0 336 68t145 228q16 116 -29.5 184.5t-134 98t-200.5 29.5h-326zM327 772h321
q62 0 130.5 12.5t130 44.5t105 89.5t55.5 147.5q23 158 -78 229t-284 71h-296z" />
    <glyph glyph-name="C" unicode="C" horiz-adv-x="1252" 
d="M589 -20q-173 0 -281 83.5t-147 248t-7 408.5q24 183 76 322.5t131.5 233.5t185 142t235.5 48q132 0 225 -61.5t141 -160.5t45 -210h-82q-5 94 -43.5 173.5t-111.5 128t-185 48.5t-202 -41.5t-157 -124t-111 -207t-66 -291.5q-43 -333 48 -495.5t316 -162.5
q112 0 197.5 48t144.5 127.5t89 173.5h82q-19 -82 -66 -159.5t-116 -138.5t-155.5 -97t-185.5 -36z" />
    <glyph glyph-name="D" unicode="D" horiz-adv-x="1266" 
d="M150 0l201 1446q2 0 69.5 -1t148.5 -1q128 -1 227.5 -21.5t172 -62.5t119.5 -104.5t70 -147.5t23 -192q0 -125 -18 -241t-58 -218.5t-104 -186t-156.5 -144t-215.5 -93.5t-281 -33h-198zM240 82h109q211 0 355.5 60.5t232.5 170.5t127 260.5t39 330.5q0 178 -65.5 278
t-190.5 141t-303 41h-124z" />
    <glyph glyph-name="E" unicode="E" horiz-adv-x="1150" 
d="M147 0l204 1446h764l-12 -80h-692l-84 -594h644l-10 -82h-644l-86 -606l718 -2l-12 -82h-790z" />
    <glyph glyph-name="F" unicode="F" horiz-adv-x="1084" 
d="M149 0l202 1446h752l-10 -80h-674l-82 -592h624l-10 -82h-626l-98 -692h-78z" />
    <glyph glyph-name="G" unicode="G" horiz-adv-x="1339" 
d="M585 -20q-169 0 -277 84t-148 248.5t-6 407.5q34 241 121 407.5t218.5 252.5t300.5 86q112 0 204.5 -60.5t146.5 -159t48 -212.5h-81q-1 91 -43 171t-116 129.5t-171 49.5q-141 0 -254 -73.5t-189.5 -221t-108.5 -369.5q-23 -166 -9 -290.5t62.5 -207t127.5 -123.5
t185 -41q107 0 191.5 42t144.5 109t95.5 143.5t45.5 145.5l24 168h-374l10 70h446l-103 -736h-73l36 252q-47 -76 -113.5 -137.5t-152 -98t-188.5 -36.5z" />
    <glyph glyph-name="H" unicode="H" horiz-adv-x="1444" 
d="M148 0l203 1446h72l-92 -652h860l91 652h72l-203 -1446h-72l100 712h-859l-100 -712h-72z" />
    <glyph glyph-name="I" unicode="I" horiz-adv-x="514" 
d="M149 0l202 1446h72l-202 -1446h-72z" />
    <glyph glyph-name="J" unicode="J" horiz-adv-x="717" 
d="M242 -20q-78 0 -132 24.5t-62 33.5l30 86q29 -15 65.5 -38.5t106.5 -23.5q87 0 129.5 55t60.5 191l161 1138h71l-164 -1166q-13 -92 -42.5 -159.5t-83.5 -104t-140 -36.5z" />
    <glyph glyph-name="K" unicode="K" horiz-adv-x="1224" 
d="M147 0l204 1446h74l-116 -834l824 834h98l-560 -570l388 -876h-94l-364 814l-308 -318l-70 -496h-76z" />
    <glyph glyph-name="L" unicode="L" horiz-adv-x="1093" 
d="M147 0l204 1446h78l-192 -1360h680l-12 -86h-758z" />
    <glyph glyph-name="M" unicode="M" horiz-adv-x="1606" 
d="M149 0l202 1446h82l306 -1358l698 1358h78l-202 -1446h-80l174 1232l-626 -1232h-106l-276 1216l-172 -1216h-78z" />
    <glyph glyph-name="N" unicode="N" horiz-adv-x="1372" 
d="M147 0l204 1446h58l620 -1290l182 1290h72l-204 -1446h-62l-616 1286l-182 -1286h-72z" />
    <glyph glyph-name="O" unicode="O" horiz-adv-x="1329" 
d="M591 -20q-170 0 -279.5 84t-151 248t-7.5 404q34 244 123 411t222.5 253t302.5 86q168 0 276 -85t149 -251.5t7 -409.5q-34 -241 -121.5 -406t-220 -249.5t-300.5 -84.5zM605 62q148 0 260 72t184.5 218t103.5 368q31 223 -1 370.5t-123.5 220.5t-239.5 73
q-222 0 -364.5 -165.5t-189.5 -498.5q-31 -221 2 -367t126 -218.5t242 -72.5z" />
    <glyph glyph-name="P" unicode="P" horiz-adv-x="1168" 
d="M149 0l202 1446h410q140 0 241 -49.5t149 -147.5t28 -243q-21 -145 -95.5 -246t-187.5 -153.5t-250 -52.5h-341l-78 -554h-78zM317 640h342q115 0 208.5 43t154 126t77.5 203q24 180 -72.5 265t-279.5 85h-328z" />
    <glyph glyph-name="Q" unicode="Q" horiz-adv-x="1361" 
d="M1082 -238q-44 0 -108 19t-124.5 70.5t-93.5 150.5q-46 -10 -86.5 -16t-79.5 -6q-164 0 -274 82t-153.5 246.5t-8.5 411.5q34 245 122.5 411t221.5 250.5t302 84.5q168 0 276.5 -84.5t150 -250.5t7.5 -411q-34 -249 -127 -420.5t-267 -263.5q32 -102 99.5 -145.5
t154.5 -48.5zM603 62q220 0 362.5 162t188.5 496q31 217 -0.5 365t-123.5 223.5t-242 75.5q-225 0 -366 -169.5t-188 -498.5q-46 -331 51 -492.5t318 -161.5z" />
    <glyph glyph-name="R" unicode="R" horiz-adv-x="1244" 
d="M147 0l204 1446h468q129 0 215 -40t123.5 -119.5t21.5 -198.5q-17 -121 -72 -199t-127 -121.5t-139 -61.5l176 -706h-82l-172 688h-446l-98 -688h-72zM327 770h336q128 0 220 30.5t146.5 97.5t69.5 176q21 155 -53.5 223.5t-238.5 68.5h-396z" />
    <glyph glyph-name="S" unicode="S" horiz-adv-x="1241" 
d="M554 -20q-90 0 -168.5 24.5t-138.5 72t-94.5 117t-37.5 160.5h81q8 -98 59 -164t132 -99t177 -33q115 0 207 37.5t150 103.5t69 151q10 77 -7 137t-64 102t-128 65l-282 80q-140 40 -208.5 120.5t-51.5 209.5q15 114 81 204.5t172 143t238 52.5q149 0 241 -59.5
t130 -151.5t25 -189h-82q5 120 -40.5 189.5t-122 99t-165.5 29.5q-78 0 -165.5 -33t-153.5 -103t-81 -180q-12 -93 40.5 -152t200.5 -103l270 -80q75 -22 123.5 -60.5t75 -88.5t33.5 -108t-1 -120q-13 -102 -75.5 -187t-172.5 -136t-266 -51z" />
    <glyph glyph-name="T" unicode="T" horiz-adv-x="1066" 
d="M442 0l192 1366h-456l10 80h948l-9 -80h-421l-192 -1366h-72z" />
    <glyph glyph-name="U" unicode="U" horiz-adv-x="1277" 
d="M585 -20q-151 0 -241 53.5t-121.5 164t-7.5 280.5l136 968h78l-140 -1002q-18 -126 9 -212.5t101 -131t196 -44.5q185 0 291 98t133 290l140 1002h71l-139 -998q-22 -157 -85 -261t-168 -155.5t-253 -51.5z" />
    <glyph glyph-name="V" unicode="V" horiz-adv-x="1175" 
d="M456 0l-268 1446h78l254 -1364l651 1364h77l-686 -1446h-106z" />
    <glyph glyph-name="W" unicode="W" horiz-adv-x="1742" 
d="M359 0l-170 1446h82l151 -1348l542 1348h71l160 -1348l542 1348h78l-586 -1446h-99l-152 1296l-523 -1296h-96z" />
    <glyph glyph-name="X" unicode="X" horiz-adv-x="1247" 
d="M42 0l564 742l-339 704h95l302 -630l482 630h92l-538 -704l359 -742h-93l-322 664l-510 -664h-92z" />
    <glyph glyph-name="Y" unicode="Y" horiz-adv-x="1012" 
d="M402 0l86 624l-328 822h80l296 -744l498 744h80l-553 -824l-88 -622h-71z" />
    <glyph glyph-name="Z" unicode="Z" horiz-adv-x="1134" 
d="M74 0l10 62l964 1306h-764l10 78h860l-8 -60l-970 -1308h786l-12 -78h-876z" />
    <glyph glyph-name="bracketleft" unicode="[" horiz-adv-x="515" 
d="M95 -322l246 1768h264l-10 -72h-186l-230 -1624h186l-10 -72h-260z" />
    <glyph glyph-name="backslash" unicode="\" horiz-adv-x="592" 
d="M395 -118l-234 1564h76l236 -1564h-78z" />
    <glyph glyph-name="bracketright" unicode="]" horiz-adv-x="514" 
d="M-78 -322l10 72h186l230 1624h-186l10 72h260l-246 -1768h-264z" />
    <glyph glyph-name="asciicircum" unicode="^" horiz-adv-x="867" 
d="M634 268l-144 658l-332 -654h-82l360 710q22 45 46 61.5t44.5 2t31.5 -63.5l164 -714h-88z" />
    <glyph glyph-name="underscore" unicode="_" horiz-adv-x="909" 
d="M30 -198l12 78l648 2l-12 -78z" />
    <glyph glyph-name="grave" unicode="`" horiz-adv-x="402" 
d="M421 1155l-200 291h103l158 -291h-61z" />
    <glyph glyph-name="a" unicode="a" horiz-adv-x="1016" 
d="M352 -20q-94 0 -158 34.5t-92 98t-17 151.5q24 174 139 253.5t353 88.5l220 8l15 100q17 125 -50 194.5t-189 69.5q-103 0 -187 -56.5t-114 -163.5h-78q15 73 65.5 141t133.5 111.5t194 43.5q101 0 173 -41t105 -116.5t18 -180.5l-100 -716h-66l24 200
q-81 -129 -183 -174.5t-206 -45.5zM373 54q59 0 123 23.5t120.5 64t95 90.5t45.5 102l28 202l-183 -4q-152 -3 -244 -31t-137.5 -84.5t-59.5 -146.5q-13 -102 45 -159t167 -57z" />
    <glyph glyph-name="b" unicode="b" horiz-adv-x="1115" 
d="M534 -20q-97 0 -157.5 28.5t-93 69.5t-45.5 78.5t-16 55.5l-33 -212h-66l193 1486h74l-83 -640q9 18 35 52t71 70t110 61t151 25q180 0 273 -131t58 -403q-31 -243 -149 -391.5t-322 -148.5zM542 54q145 0 249.5 117.5t135.5 361.5q26 200 -38.5 322.5t-232.5 122.5
q-184 0 -272.5 -120.5t-117.5 -324.5q-32 -250 28 -364.5t248 -114.5z" />
    <glyph glyph-name="c" unicode="c" horiz-adv-x="1017" 
d="M453 -20q-125 0 -211 57.5t-121.5 176t-10.5 300.5q23 162 85 283.5t164.5 189t244.5 67.5q87 0 158.5 -32.5t116.5 -98.5t50 -167h-79q-1 68 -33.5 118t-89.5 77t-133 27q-151 0 -262.5 -113.5t-144.5 -350.5q-29 -206 37.5 -333t239.5 -127q76 0 141 27t111.5 77
t66.5 118h79q-33 -100 -96.5 -166t-144.5 -98t-168 -32z" />
    <glyph glyph-name="d" unicode="d" horiz-adv-x="1110" 
d="M441 -20q-181 0 -273.5 132.5t-57.5 407.5q32 240 149.5 387t321.5 147q86 0 144 -25t93.5 -61t53 -70t21.5 -52l84 640h74l-194 -1486h-66l22 212q-7 -18 -30 -55.5t-66 -78.5t-110.5 -69.5t-165.5 -28.5zM452 54q188 0 278 114.5t123 364.5q16 136 -3 236t-84 154.5
t-188 54.5q-148 0 -252.5 -109t-133.5 -336q-28 -215 34 -347t226 -132z" />
    <glyph glyph-name="e" unicode="e" horiz-adv-x="1050" 
d="M471 -20q-126 0 -213 61.5t-124.5 179.5t-13.5 287q24 171 90 293.5t167.5 187.5t233.5 65q124 0 203.5 -59t110.5 -170.5t8 -270.5l-7 -56h-729q-16 -117 6 -217.5t90 -162.5t189 -62q114 0 203 59t120 161h78q-33 -100 -97.5 -166t-146.5 -98t-168 -32zM209 574h650
q17 115 -4.5 206.5t-84.5 144.5t-171 53q-118 0 -200 -60.5t-129.5 -153.5t-60.5 -190z" />
    <glyph glyph-name="f" unicode="f" horiz-adv-x="743" 
d="M250 0l135 966h-228l11 68h225l25 172q17 120 73 180t164 60h139l-9 -68h-157q-67 0 -96.5 -40.5t-40.5 -115.5l-26 -188h262l-10 -68h-261l-135 -966h-71z" />
    <glyph glyph-name="g" unicode="g" horiz-adv-x="1148" 
d="M423 -342q-195 0 -304.5 71t-90.5 219q8 59 36 102t63.5 73.5t66 49.5t42.5 29q-16 12 -32.5 25t-26.5 32.5t-6 50.5q5 42 46 77t114 57q-69 44 -105 114t-24 162q13 99 63.5 173.5t140 115.5t219.5 41q89 0 149.5 -24t109.5 -74q10 5 41 18.5t69 30t69.5 30t40.5 17.5
l-15 -116l-176 -40q32 -79 21 -172q-12 -93 -61 -163.5t-135 -109.5t-210 -39h-10h-10q-144 -3 -200 -33t-61 -63q-4 -33 35.5 -48t153.5 -24q41 -3 94.5 -6t120.5 -8q124 -7 192 -72.5t51 -191.5q-18 -136 -134 -220t-337 -84zM449 -268q153 0 253.5 56.5t115.5 173.5
q10 77 -33 127t-147 57l-315 22q-28 2 -77 -24.5t-91 -75t-51 -112.5q-13 -100 71 -162t274 -62zM540 482q131 0 218.5 59t103.5 183q17 129 -55 190.5t-203 61.5q-133 0 -222.5 -62t-106.5 -190q-16 -118 53 -180t212 -62z" />
    <glyph glyph-name="h" unicode="h" horiz-adv-x="1080" 
d="M123 0l193 1486h67l-79 -606q47 74 138 124t208 50q95 0 166 -36.5t106.5 -101.5t23.5 -150l-99 -766h-73l96 736q15 114 -47.5 178t-184.5 64q-85 0 -160.5 -28t-126.5 -85t-62 -145l-94 -720h-72z" />
    <glyph glyph-name="i" unicode="i" horiz-adv-x="449" 
d="M115 0l146 1034h73l-145 -1034h-74zM295 1326l16 120h88l-16 -120h-88z" />
    <glyph glyph-name="j" unicode="j" horiz-adv-x="448" 
d="M-63 -332q-81 0 -97.5 9l-16.5 9l8 52l115 2q71 2 106.5 39.5t48.5 130.5l158 1124h72l-160 -1134q-17 -120 -64 -176t-170 -56zM294 1325l16 120h88l-16 -120h-88z" />
    <glyph glyph-name="k" unicode="k" horiz-adv-x="1022" 
d="M107 0l210 1486h71l-148 -1058l630 606h102l-394 -376l281 -658h-92l-253 592l-291 -276l-43 -316h-73z" />
    <glyph glyph-name="l" unicode="l" horiz-adv-x="536" 
d="M283 -8q-47 0 -78 19t-47.5 53t-20 79.5t3.5 98.5l176 1244h73l-177 -1244q-13 -100 15 -142t67 -42h58l-7 -58q-19 -4 -36.5 -6t-26.5 -2z" />
    <glyph glyph-name="m" unicode="m" horiz-adv-x="1562" 
d="M108 0l145 1034h65l-21 -154q44 69 116.5 121.5t183.5 52.5q83 0 159.5 -44t95.5 -128q56 81 138.5 126.5t178.5 45.5q48 0 99.5 -14t93.5 -53.5t60.5 -115.5t0.5 -201l-94 -670h-70l93 670q18 125 -6 191.5t-74.5 91.5t-112.5 25q-55 0 -120.5 -22t-117.5 -78t-67 -158
l-101 -720h-70l104 752q11 76 -18.5 126t-80 75t-103.5 25q-60 0 -125.5 -25.5t-115.5 -82.5t-63 -150l-102 -720h-71z" />
    <glyph glyph-name="n" unicode="n" horiz-adv-x="1060" 
d="M108 0l145 1034h65l-19 -154q31 49 82 88.5t117.5 62.5t143.5 23q96 0 165.5 -41t101 -126t12.5 -217l-94 -670h-72l95 670q22 150 -37.5 229t-179.5 79q-85 0 -161 -28t-127.5 -85t-63.5 -145l-102 -720h-71z" />
    <glyph glyph-name="o" unicode="o" horiz-adv-x="1044" 
d="M455 -20q-124 0 -210 58t-122.5 176.5t-12.5 299.5q21 162 81.5 283.5t161.5 189t242 67.5q123 0 207 -58.5t120 -178t12 -303.5q-21 -160 -81 -280t-159 -187t-239 -67zM465 54q100 0 181.5 50t137 152t75.5 258q18 139 -4.5 243.5t-89 162.5t-180.5 58
q-102 0 -184.5 -50t-138 -153t-76.5 -261q-18 -138 5 -241.5t91 -161t183 -57.5z" />
    <glyph glyph-name="p" unicode="p" horiz-adv-x="1108" 
d="M77 -322l176 1356h70l-23 -212q19 37 61.5 92t116 97.5t183.5 42.5q123 0 207 -56t120 -171t13 -291q-21 -167 -81.5 -292t-160 -194.5t-238.5 -69.5q-82 0 -137 25.5t-88.5 64.5t-50.5 79t-24 70l-70 -541h-74zM531 54q149 0 254.5 116.5t136.5 357.5q27 203 -38 326.5
t-233 123.5q-162 0 -264 -122t-128 -328q-18 -137 6.5 -244t91 -168.5t174.5 -61.5z" />
    <glyph glyph-name="q" unicode="q" horiz-adv-x="1112" 
d="M740 -322l70 541q-19 -39 -62.5 -95.5t-116.5 -100t-183 -43.5q-122 0 -206 60t-119 183.5t-10 312.5q20 156 79.5 272.5t158 181t236.5 64.5q83 0 138 -25t89 -63t51 -77t24 -67l31 212h70l-176 -1356h-74zM457 54q109 0 191.5 61.5t135 168.5t69.5 244q27 206 -43 328
t-232 122q-149 0 -254 -110t-135 -340q-28 -213 36 -343.5t232 -130.5z" />
    <glyph glyph-name="r" unicode="r" horiz-adv-x="705" 
d="M107 0l146 1034h66l-21 -154q35 70 84.5 107.5t103.5 52t100 14.5q29 0 57 -4.5t44 -15.5l-11 -80q-18 10 -50 14t-52 4q-45 0 -108.5 -20t-116.5 -74.5t-68 -157.5l-101 -720h-73z" />
    <glyph glyph-name="s" unicode="s" horiz-adv-x="917" 
d="M404 -20q-100 0 -174.5 32t-114 98t-36.5 166h77q3 -66 32 -115.5t85.5 -77t141.5 -27.5q116 0 194 51.5t93 158.5q10 72 -18 115.5t-91 63.5l-219 68q-100 32 -152.5 90t-38.5 161q12 87 56.5 152t122.5 101.5t189 36.5q135 0 211.5 -67t63.5 -207h-77q3 89 -48 143.5
t-160 54.5q-113 0 -190 -52t-92 -162q-10 -70 29.5 -109.5t116.5 -63.5l218 -68q50 -16 83 -42t51 -59t22.5 -72t-1.5 -80q-12 -87 -57 -152t-124 -101.5t-193 -36.5z" />
    <glyph glyph-name="t" unicode="t" horiz-adv-x="689" 
d="M396 0q-72 0 -109.5 23.5t-47 74.5t1.5 134l103 734h-156l11 68h153l61 290h55l-40 -290h220l-10 -68h-220l-102 -724q-15 -108 14 -136t112 -28h80l-10 -68q-17 -6 -49 -8t-67 -2z" />
    <glyph glyph-name="u" unicode="u" horiz-adv-x="1074" 
d="M456 -20q-83 1 -148 24t-107.5 68t-59.5 113.5t-4 160.5l96 688h73l-97 -688q-19 -130 42 -210t211 -80q133 0 224.5 75t113.5 231l95 672h72l-146 -1034h-66l21 190q-26 -64 -71 -111.5t-107.5 -73.5t-141.5 -25z" />
    <glyph glyph-name="v" unicode="v" horiz-adv-x="911" 
d="M326 0l-185 1034h78l162 -946h24l438 946h73l-475 -1034h-115z" />
    <glyph glyph-name="w" unicode="w" horiz-adv-x="1430" 
d="M282 0l-134 1034h78l120 -948h22l388 948h66l136 -944h22l374 944h74l-408 -1034h-120l-130 900l-362 -900h-126z" />
    <glyph glyph-name="x" unicode="x" horiz-adv-x="1010" 
d="M17 0l441 536l-269 498h89l237 -436l357 436h90l-409 -498l294 -536h-91l-260 474l-390 -474h-89z" />
    <glyph glyph-name="y" unicode="y" horiz-adv-x="944" 
d="M93 -330q-69 0 -90.5 8l-21.5 8l8 54h102q59 0 99 17t66.5 46t44.5 65l68 138l-228 1028h78l204 -922l456 922h70l-582 -1184q-33 -65 -75 -104.5t-92 -57.5t-107 -18z" />
    <glyph glyph-name="z" unicode="z" horiz-adv-x="876" 
d="M19 0l8 68l735 898h-565l10 68h645l-9 -68l-733 -898h613l-10 -68h-694z" />
    <glyph glyph-name="braceleft" unicode="{" horiz-adv-x="503" 
d="M295 -322q-71 0 -110.5 24t-53 65t-6.5 91l66 458q6 47 -10.5 95t-58.5 80.5t-111 32.5l12 76q105 2 165 66t73 152l64 454q7 50 33 89.5t72 62t113 22.5h50l-10 -72h-52q-41 0 -67.5 -10.5t-41 -33t-19.5 -58.5l-64 -454q-11 -79 -41 -132.5t-72.5 -82t-90.5 -33.5
q-10 -1 -12 -6.5t10 -7.5q46 -4 81 -30t50.5 -77.5t4.5 -132.5l-64 -458q-7 -55 13 -81.5t87 -26.5h50l-10 -72h-50z" />
    <glyph glyph-name="bar" unicode="|" horiz-adv-x="510" 
d="M104 -322l276 1974h70l-278 -1974h-68z" />
    <glyph glyph-name="braceright" unicode="}" horiz-adv-x="521" 
d="M-69 -322l10 72h52q41 0 67.5 10.5t41 33t19.5 58.5l64 454q11 79 41 132.5t72.5 82t90.5 33.5q11 2 12.5 7.5t-10.5 6.5q-46 4 -81 30t-50.5 77.5t-4.5 132.5l64 458q8 56 -12 82t-88 26h-50l10 72h50q71 0 110.5 -24t53 -65t6.5 -91l-66 -458q-6 -47 11 -95t58.5 -80.5
t110.5 -32.5l-12 -76q-105 -1 -164.5 -65t-73.5 -153l-64 -454q-7 -50 -33 -89.5t-72 -62t-113 -22.5h-50z" />
    <glyph glyph-name="asciitilde" unicode="~" horiz-adv-x="983" 
d="M162 654l-14 64q41 35 92.5 64.5t127.5 29.5q48 0 87.5 -13.5t76.5 -30.5t76.5 -30.5t87.5 -13.5q72 0 114 27t70 55l14 -68q-22 -27 -74.5 -55.5t-135.5 -28.5q-54 0 -93.5 13t-73.5 30t-70.5 30t-84.5 13q-69 0 -118 -27t-82 -59z" />
    <glyph glyph-name="uni00A0" unicode="&#xa0;" horiz-adv-x="520" 
 />
    <glyph glyph-name="exclamdown" unicode="&#xa1;" horiz-adv-x="437" 
d="M65 -322l156 1066h58l-120 -1066h-94zM213 880l20 154h110l-20 -154h-110z" />
    <glyph glyph-name="cent" unicode="&#xa2;" horiz-adv-x="986" 
d="M479 202q-125 0 -211 57.5t-121.5 176t-10.5 300.5q23 162 85 283.5t164.5 189t244.5 67.5q87 0 158.5 -32.5t116.5 -98.5t50 -167h-79q-1 68 -33.5 118t-89.5 77t-133 27q-151 0 -262.5 -113.5t-144.5 -350.5q-29 -206 37.5 -333t239.5 -127q76 0 141 27t111.5 77
t66.5 118h79q-33 -100 -96.5 -166t-144.5 -98t-168 -32zM402 0l34 236h72l-33 -236h-73zM589 1210l33 236h72l-33 -236h-72z" />
    <glyph glyph-name="sterling" unicode="&#xa3;" horiz-adv-x="1075" 
d="M-52 0l10 76h76q71 0 135 82.5t89 259.5q8 54 12 121.5t2 158.5h-184l10 74h176l-16 150q-12 125 18.5 225t91 171.5t140 109.5t164.5 38q76 0 139 -28t104.5 -71t52.5 -89l-72 -38q-24 68 -77.5 105t-154.5 37q-117 0 -210.5 -72t-113.5 -204q-9 -72 -7 -163.5
t17 -168.5h324l-12 -74h-314q3 -73 1.5 -131t-9.5 -117q-16 -114 -47.5 -190.5t-63.5 -121t-49 -62.5h392q99 0 170.5 36.5t117.5 129.5l62 -30q-57 -108 -149.5 -161t-212.5 -53h-612z" />
    <glyph glyph-name="currency" unicode="&#xa4;" horiz-adv-x="942" 
d="M158 356l-42 62l112 104q-24 45 -31.5 97t-0.5 109q8 54 29.5 102.5t52.5 87.5q6 8 5.5 14t-3.5 10l-74 98l60 56l82 -110q42 33 93.5 50.5t102.5 17.5q99 0 162 -60q14 -8 24 2l112 104l42 -58l-120 -114q23 -42 32.5 -93t1.5 -107q-7 -52 -27.5 -100t-52.5 -86
q-10 -17 -2 -28l82 -98l-60 -58l-88 112q-45 -33 -95 -52.5t-103 -19.5q-99 0 -168 60q-11 11 -22 -2zM468 484q63 0 118 34t92 89.5t46 120.5q9 64 -12 119.5t-66.5 90t-109.5 34.5t-119.5 -34.5t-92.5 -90t-46 -119.5q-9 -65 12 -120.5t67 -89.5t111 -34z" />
    <glyph glyph-name="yen" unicode="&#xa5;" horiz-adv-x="1042" 
d="M413 0l84 606l-336 840h94l296 -744l510 744h82l-558 -808l-90 -638h-82zM169 308l10 74l658 2l-12 -74zM207 582l10 74l658 2l-10 -74z" />
    <glyph glyph-name="brokenbar" unicode="&#xa6;" horiz-adv-x="510" 
d="M270 864l110 788h70l-112 -788h-68zM104 -322l110 788h68l-110 -788h-68z" />
    <glyph glyph-name="section" unicode="&#xa7;" horiz-adv-x="876" 
d="M369 -132q-75 0 -143.5 28t-119.5 79.5t-75 122.5l64 40q35 -85 111 -138.5t179 -53.5q104 0 179 46.5t87 131.5q9 60 -27 115t-153 109l-164 74q-103 47 -140.5 115.5t-27.5 150.5q14 93 81 159t155 99q-115 68 -143 133.5t-19 134.5q11 72 59.5 129t124.5 90t170 33
q73 0 131.5 -26t101 -69t67.5 -93l-66 -42q-37 66 -95 109t-141 43q-118 0 -190 -46.5t-84 -123.5q-6 -51 21.5 -102.5t132.5 -101.5l152 -72q126 -61 172 -139t32 -171q-13 -103 -76.5 -160t-137.5 -92q77 -51 116 -112t28 -144q-11 -73 -60.5 -131t-127.5 -91.5
t-174 -33.5zM487 432q53 -4 103.5 21.5t86 69.5t42.5 97q11 75 -13.5 129.5t-126.5 102.5l-110 50q-59 -5 -113.5 -35.5t-92 -76.5t-44.5 -96q-9 -63 19.5 -107.5t130.5 -94.5z" />
    <glyph glyph-name="dieresis" unicode="&#xa8;" horiz-adv-x="341" 
d="M352 1326l16 120h88l-16 -120h-88zM120 1326l16 120h88l-16 -120h-88z" />
    <glyph glyph-name="copyright" unicode="&#xa9;" horiz-adv-x="1486" 
d="M669 -20q-142 0 -258.5 57.5t-196 159.5t-113.5 237t-12 290q21 153 93 287.5t180.5 236.5t240.5 160t274 58q141 0 256.5 -58t195 -160t114 -236.5t12.5 -287.5q-22 -155 -94 -290t-180.5 -237t-240 -159.5t-271.5 -57.5zM719 310q-101 0 -170 52.5t-98.5 146.5
t-11.5 219q17 124 73.5 219t140.5 149t184 54q64 0 112.5 -24.5t84.5 -66.5t63 -95l-72 -42q-22 51 -51 84.5t-65 50.5t-78 17q-77 0 -142.5 -43.5t-110.5 -120.5t-59 -178q-22 -154 39 -250t175 -96q75 0 142 45.5t112 118.5l52 -38q-32 -46 -69 -83.5t-78 -64t-84.5 -40.5
t-88.5 -14zM681 66q119 0 233.5 46.5t211 132.5t162.5 207.5t87 271.5q21 148 -10.5 269t-104 208t-174.5 134t-221 47q-122 0 -237.5 -47t-211.5 -134t-161 -208t-86 -269q-28 -200 34.5 -348t188.5 -229t289 -81z" />
    <glyph glyph-name="ordfeminine" unicode="&#xaa;" horiz-adv-x="778" 
d="M360 790q-94 0 -141 47t-35 131q14 93 93 145t221 67l134 14l6 50q11 77 -26.5 113.5t-117.5 36.5q-58 0 -102.5 -22t-91.5 -84l-54 26q42 69 111 107.5t153 38.5q107 0 156.5 -60t35.5 -164q-12 -78 -19.5 -134.5t-12.5 -85.5q-3 -20 -5 -40.5t-3 -42.5t-2 -47l-2 -84
h-68l-2 100q-56 -58 -110.5 -85t-117.5 -27zM382 852q83 0 154 62q30 26 48.5 50.5t21.5 51.5l16 116l-109 -10q-125 -10 -187.5 -49.5t-71.5 -102.5q-7 -54 28.5 -86t99.5 -32z" />
    <glyph glyph-name="guillemotleft" unicode="&#xab;" horiz-adv-x="767" 
d="M572 152l-214 350l316 366h52l-272 -366l168 -350h-50zM272 152l-214 350l316 366h52l-272 -366l168 -350h-50z" />
    <glyph glyph-name="logicalnot" unicode="&#xac;" horiz-adv-x="981" 
d="M154 688l12 74l720 2l-12 -74zM770 418l44 332h70l-48 -332h-66z" />
    <glyph glyph-name="uni00AD" unicode="&#xad;" horiz-adv-x="686" 
d="M122 478l10 78l432 2l-10 -78z" />
    <glyph glyph-name="registered" unicode="&#xae;" horiz-adv-x="974" 
d="M490 536q-119 0 -207.5 62t-131 167.5t-23.5 234.5q18 129 90 235t178 168.5t226 62.5q117 0 204.5 -62.5t130.5 -168.5t25 -235t-90.5 -234.5t-178 -167.5t-223.5 -62zM500 604q106 0 194.5 48.5t147.5 137.5t76 210q17 120 -17 209.5t-108.5 139t-180.5 49.5
q-108 0 -197 -49.5t-147.5 -139t-75.5 -209.5q-25 -181 60.5 -288.5t247.5 -107.5zM366 766l66 462h184q63 0 93.5 -28t22.5 -84q-7 -58 -41 -85t-69 -39l50 -226h-58l-46 222h-116l-32 -222h-54zM458 1044h118q36 0 65 12.5t35 51.5q3 26 -12 46t-74 20h-112z" />
    <glyph glyph-name="macron" unicode="&#xaf;" horiz-adv-x="488" 
d="M124 1265l10 74h452l-10 -74h-452z" />
    <glyph glyph-name="degree" unicode="&#xb0;" horiz-adv-x="856" 
d="M507 1088q-78 0 -133 37.5t-80 103.5t-13 151q12 86 55.5 152.5t109.5 104t145 37.5q77 0 132 -37.5t80.5 -104t13.5 -152.5q-12 -85 -56 -151t-110 -103.5t-144 -37.5zM515 1158q90 0 150.5 61.5t73.5 158.5q15 98 -28.5 159t-135.5 61q-87 0 -148.5 -61t-75.5 -159
q-12 -97 32 -158.5t132 -61.5z" />
    <glyph glyph-name="plusminus" unicode="&#xb1;" horiz-adv-x="982" 
d="M453 472l108 782h68l-110 -782h-66zM81 162l10 74l720 2l-10 -74zM175 824l10 74l720 2l-10 -74z" />
    <glyph glyph-name="uni00B2" unicode="&#xb2;" horiz-adv-x="634" 
d="M75 768l8 52l4 27q12 83 52 139.5t97 98t119.5 77t119.5 74t96.5 89.5t49.5 124q12 85 -36 136.5t-140 51.5q-102 0 -166.5 -60.5t-80.5 -149.5h-51q18 106 99 184.5t210 78.5q112 0 171 -66.5t43 -176.5q-12 -83 -52.5 -139.5t-97.5 -97.5t-119 -76t-118.5 -73t-96 -89
t-50.5 -125l-3 -27h459l-8 -52h-509z" />
    <glyph glyph-name="uni00B3" unicode="&#xb3;" horiz-adv-x="703" 
d="M345 754q-109 2 -178 71.5t-59 184.5h52q-1 -91 51 -147.5t147 -56.5q108 0 182.5 56t87.5 146q15 107 -55 160t-177 53h-72l8 51h71q66 0 123 27.5t95.5 72t45.5 93.5q9 64 -36.5 119t-153.5 55q-50 0 -102.5 -23.5t-91 -70.5t-48.5 -118h-51q11 79 55 138t108.5 92
t134.5 33q81 0 137 -28t82 -78.5t17 -118.5q-10 -68 -61 -125t-137 -89q62 -19 100 -53.5t53 -81.5t7 -104q-11 -76 -56 -135t-116.5 -91.5t-162.5 -31.5z" />
    <glyph glyph-name="acute" unicode="&#xb4;" horiz-adv-x="320" 
d="M100 1155l228 291h113l-270 -291h-71z" />
    <glyph glyph-name="uni00B5" unicode="&#xb5;" horiz-adv-x="1071" 
d="M41 -330l196 1390h74l-112 -786q-8 -58 16 -107.5t71.5 -80t110.5 -30.5q90 0 186.5 57.5t199.5 154.5l110 792h74l-150 -1060h-68l24 164q-129 -100 -212 -142t-170 -42q-69 0 -123.5 21t-96.5 73l-56 -404h-74z" />
    <glyph glyph-name="paragraph" unicode="&#xb6;" horiz-adv-x="975" 
d="M409 -166l106 758q-129 0 -209 59.5t-111.5 153.5t-16.5 197q15 109 74.5 211t161 167.5t241.5 65.5h290l-8 -62h-108l-218 -1550h-61l217 1550h-78l-218 -1550h-62z" />
    <glyph glyph-name="periodcentered" unicode="&#xb7;" horiz-adv-x="386" 
d="M139 652l22 154h146l-22 -154h-146z" />
    <glyph glyph-name="cedilla" unicode="&#xb8;" horiz-adv-x="350" 
d="M26 -398q-42 0 -74 12t-58 34l28 56q17 -19 39.5 -31.5t64.5 -12.5q57 0 84.5 22t33.5 62q8 47 -23.5 69t-100.5 25q-7 0 -8 2.5t2 5.5l88 164h62l-64 -124q55 -5 83 -26t36.5 -51t4.5 -61q-7 -49 -36 -81.5t-71.5 -48.5t-90.5 -16z" />
    <glyph glyph-name="uni00B9" unicode="&#xb9;" horiz-adv-x="418" 
d="M228 760l108 766h-174l6 49q117 0 153.5 21.5t43.5 73.5h40l-128 -910h-49z" />
    <glyph glyph-name="ordmasculine" unicode="&#xba;" horiz-adv-x="770" 
d="M423 794q-134 0 -190.5 93.5t-36.5 238.5q14 101 58 177t111.5 118.5t152.5 42.5q128 0 188.5 -93t39.5 -245q-13 -97 -55.5 -172t-110 -117.5t-157.5 -42.5zM432 858q99 0 161.5 75t79.5 199q16 117 -25 190.5t-139 73.5q-99 0 -160.5 -73.5t-78.5 -190.5
q-18 -124 23 -199t139 -75z" />
    <glyph glyph-name="guillemotright" unicode="&#xbb;" horiz-adv-x="763" 
d="M341 152l267 350l-171 366h50l214 -366l-312 -350h-48zM41 152l266 350l-168 366h48l214 -366l-312 -350h-48z" />
    <glyph glyph-name="onequarter" unicode="&#xbc;" horiz-adv-x="1341" 
d="M228 552l108 766h-174l6 49q117 0 153.5 21.5t43.5 73.5h40l-128 -910h-49zM162 -8h-71l1105 1470h69zM1023 0l37 263h-403l9 62l480 585h52l-82 -595h147l-7 -52h-149l-36 -263h-48zM714 315h349l72 510z" />
    <glyph glyph-name="onehalf" unicode="&#xbd;" horiz-adv-x="1502" 
d="M228 552l108 766h-174l6 49q117 0 153.5 21.5t43.5 73.5h40l-128 -910h-49zM162 -8h-71l1105 1470h69zM866 0l8 52l4 27q12 83 52 139.5t97 98t119.5 77t119.5 74t96.5 89.5t49.5 124q12 85 -36 136.5t-140 51.5q-102 0 -166.5 -60.5t-80.5 -149.5h-51q18 106 99 184.5
t210 78.5q112 0 171 -66.5t43 -176.5q-12 -83 -52.5 -139.5t-97.5 -97.5t-119 -76t-118.5 -73t-96 -89t-50.5 -125l-3 -27h459l-8 -52h-509z" />
    <glyph glyph-name="threequarters" unicode="&#xbe;" horiz-adv-x="1567" 
d="M345 544q-109 2 -178 71.5t-59 184.5h52q-1 -91 51 -147.5t147 -56.5q108 0 182.5 56t87.5 146q15 107 -55 160t-177 53h-72l8 51h71q66 0 123 27.5t95.5 72t45.5 93.5q9 64 -36.5 119t-153.5 55q-50 0 -102.5 -23.5t-91 -70.5t-48.5 -118h-51q11 79 55 138t108.5 92
t134.5 33q81 0 137 -28t82 -78.5t17 -118.5q-10 -68 -61 -125t-137 -89q62 -19 100 -53.5t53 -81.5t7 -104q-11 -76 -56 -135t-116.5 -91.5t-162.5 -31.5zM388 -8h-71l1105 1470h69zM1249 0l37 263h-403l9 62l480 585h52l-82 -595h147l-7 -52h-149l-36 -263h-48zM940 315
h349l72 510z" />
    <glyph glyph-name="questiondown" unicode="&#xbf;" horiz-adv-x="923" 
d="M325 -342q-117 0 -197 44t-116.5 124t-22.5 188q13 100 60.5 168t111.5 122.5t128 111.5t112.5 134t63.5 192h76q-16 -124 -64.5 -206t-111.5 -141t-125.5 -111.5t-108.5 -115.5t-58 -154q-16 -126 55 -200t207 -74q70 0 143 28.5t131.5 76t85.5 103.5l72 -40
q-73 -114 -192 -182t-250 -68zM465 880l20 154h112l-20 -154h-112z" />
    <glyph glyph-name="Agrave" unicode="&#xc0;" horiz-adv-x="1304" 
d="M42 0l690 1446h102l282 -1446h-79l-88 456h-610l-220 -456h-77zM377 542h557l-160 820zM778 1567l-200 291h103l158 -291h-61z" />
    <glyph glyph-name="Aacute" unicode="&#xc1;" horiz-adv-x="1304" 
d="M42 0l690 1446h102l282 -1446h-79l-88 456h-610l-220 -456h-77zM377 542h557l-160 820zM739 1567l228 291h113l-270 -291h-71z" />
    <glyph glyph-name="Acircumflex" unicode="&#xc2;" horiz-adv-x="1304" 
d="M42 0l690 1446h102l282 -1446h-79l-88 456h-610l-220 -456h-77zM377 542h557l-160 820zM553 1567l246 190h58l190 -190h-112l-118 120l-160 -120h-104z" />
    <glyph glyph-name="Atilde" unicode="&#xc3;" horiz-adv-x="1304" 
d="M42 0l690 1446h102l282 -1446h-79l-88 456h-610l-220 -456h-77zM377 542h557l-160 820zM600 1661l-14 60q32 27 63.5 44.5t74.5 17.5q39 0 70.5 -12.5t63.5 -25t72 -12.5q35 0 58.5 11.5t51.5 30.5l18 -68q-21 -13 -53.5 -29.5t-86.5 -16.5q-46 0 -75.5 12t-56.5 24
t-64 12q-45 0 -72 -17t-50 -31z" />
    <glyph glyph-name="Adieresis" unicode="&#xc4;" horiz-adv-x="1304" 
d="M42 0l690 1446h102l282 -1446h-79l-88 456h-610l-220 -456h-77zM377 542h557l-160 820zM897 1738l16 120h88l-16 -120h-88zM665 1738l16 120h88l-16 -120h-88z" />
    <glyph glyph-name="Aring" unicode="&#xc5;" horiz-adv-x="1304" 
d="M42 0l690 1446h102l282 -1446h-79l-88 456h-610l-220 -456h-77zM377 542h557l-160 820zM801 1584q-73 0 -117.5 57t-32.5 141q7 52 37.5 94.5t75 68t93.5 25.5q75 0 119.5 -55.5t32.5 -136.5q-7 -55 -37 -99t-75 -69.5t-96 -25.5zM811 1662q44 0 79.5 35t42.5 81
q6 51 -19.5 82.5t-70.5 31.5q-40 0 -76 -31.5t-44 -82.5q-7 -46 19.5 -81t68.5 -35z" />
    <glyph glyph-name="AE" unicode="&#xc6;" horiz-adv-x="1688" 
d="M-73 0l962 1446h762l-10 -78h-638l-84 -598h600l-10 -78h-602l-86 -614h664l-10 -78h-747l67 464h-482l-310 -464h-76zM359 542h446l116 828z" />
    <glyph glyph-name="Ccedilla" unicode="&#xc7;" horiz-adv-x="1252" 
d="M488 -398q-42 0 -74 12t-58 34l28 56q17 -19 39.5 -31.5t64.5 -12.5q57 0 84.5 22t33.5 62q8 47 -23.5 69t-100.5 25q-7 0 -8 2.5t2 5.5l88 164h62l-64 -124q55 -5 83 -26t36.5 -51t4.5 -61q-7 -49 -36 -81.5t-71.5 -48.5t-90.5 -16zM589 -20q-173 0 -281 83.5t-147 248
t-7 408.5q24 183 76 322.5t131.5 233.5t185 142t235.5 48q132 0 225 -61.5t141 -160.5t45 -210h-82q-5 94 -43.5 173.5t-111.5 128t-185 48.5t-202 -41.5t-157 -124t-111 -207t-66 -291.5q-43 -333 48 -495.5t316 -162.5q112 0 197.5 48t144.5 127.5t89 173.5h82
q-19 -82 -66 -159.5t-116 -138.5t-155.5 -97t-185.5 -36z" />
    <glyph glyph-name="Egrave" unicode="&#xc8;" horiz-adv-x="1150" 
d="M147 0l204 1446h764l-12 -80h-692l-84 -594h644l-10 -82h-644l-86 -606l718 -2l-12 -82h-790zM710 1567l-200 291h103l158 -291h-61z" />
    <glyph glyph-name="Eacute" unicode="&#xc9;" horiz-adv-x="1150" 
d="M147 0l204 1446h764l-12 -80h-692l-84 -594h644l-10 -82h-644l-86 -606l718 -2l-12 -82h-790zM671 1567l228 291h113l-270 -291h-71z" />
    <glyph glyph-name="Ecircumflex" unicode="&#xca;" horiz-adv-x="1150" 
d="M147 0l204 1446h764l-12 -80h-692l-84 -594h644l-10 -82h-644l-86 -606l718 -2l-12 -82h-790zM485 1567l246 190h58l190 -190h-112l-118 120l-160 -120h-104z" />
    <glyph glyph-name="Edieresis" unicode="&#xcb;" horiz-adv-x="1150" 
d="M147 0l204 1446h764l-12 -80h-692l-84 -594h644l-10 -82h-644l-86 -606l718 -2l-12 -82h-790zM829 1738l16 120h88l-16 -120h-88zM597 1738l16 120h88l-16 -120h-88z" />
    <glyph glyph-name="Igrave" unicode="&#xcc;" horiz-adv-x="514" 
d="M149 0l202 1446h72l-202 -1446h-72zM384 1567l-200 291h103l158 -291h-61z" />
    <glyph glyph-name="Iacute" unicode="&#xcd;" horiz-adv-x="514" 
d="M149 0l202 1446h72l-202 -1446h-72zM345 1567l228 291h113l-270 -291h-71z" />
    <glyph glyph-name="Icircumflex" unicode="&#xce;" horiz-adv-x="514" 
d="M149 0l202 1446h72l-202 -1446h-72zM159 1567l246 190h58l190 -190h-112l-118 120l-160 -120h-104z" />
    <glyph glyph-name="Idieresis" unicode="&#xcf;" horiz-adv-x="514" 
d="M149 0l202 1446h72l-202 -1446h-72zM503 1738l16 120h88l-16 -120h-88zM271 1738l16 120h88l-16 -120h-88z" />
    <glyph glyph-name="Eth" unicode="&#xd0;" horiz-adv-x="1297" 
d="M106 688v82h597v-82h-597zM181 0l201 1446q2 0 69.5 -1t148.5 -1q128 -1 227.5 -21.5t172 -62.5t119.5 -104.5t70 -147.5t23 -192q0 -125 -18 -241t-58 -218.5t-104 -186t-156.5 -144t-215.5 -93.5t-281 -33h-198zM271 82h109q211 0 355.5 60.5t232.5 170.5t127 260.5
t39 330.5q0 178 -65.5 278t-190.5 141t-303 41h-124z" />
    <glyph glyph-name="Ntilde" unicode="&#xd1;" horiz-adv-x="1372" 
d="M147 0l204 1446h58l620 -1290l182 1290h72l-204 -1446h-62l-616 1286l-182 -1286h-72zM634 1661l-14 60q32 27 63.5 44.5t74.5 17.5q39 0 70.5 -12.5t63.5 -25t72 -12.5q35 0 58.5 11.5t51.5 30.5l18 -68q-21 -13 -53.5 -29.5t-86.5 -16.5q-46 0 -75.5 12t-56.5 24
t-64 12q-45 0 -72 -17t-50 -31z" />
    <glyph glyph-name="Ograve" unicode="&#xd2;" horiz-adv-x="1329" 
d="M591 -20q-170 0 -279.5 84t-151 248t-7.5 404q34 244 123 411t222.5 253t302.5 86q168 0 276 -85t149 -251.5t7 -409.5q-34 -241 -121.5 -406t-220 -249.5t-300.5 -84.5zM605 62q148 0 260 72t184.5 218t103.5 368q31 223 -1 370.5t-123.5 220.5t-239.5 73
q-222 0 -364.5 -165.5t-189.5 -498.5q-31 -221 2 -367t126 -218.5t242 -72.5zM796 1567l-200 291h103l158 -291h-61z" />
    <glyph glyph-name="Oacute" unicode="&#xd3;" horiz-adv-x="1329" 
d="M591 -20q-170 0 -279.5 84t-151 248t-7.5 404q34 244 123 411t222.5 253t302.5 86q168 0 276 -85t149 -251.5t7 -409.5q-34 -241 -121.5 -406t-220 -249.5t-300.5 -84.5zM605 62q148 0 260 72t184.5 218t103.5 368q31 223 -1 370.5t-123.5 220.5t-239.5 73
q-222 0 -364.5 -165.5t-189.5 -498.5q-31 -221 2 -367t126 -218.5t242 -72.5zM757 1567l228 291h113l-270 -291h-71z" />
    <glyph glyph-name="Ocircumflex" unicode="&#xd4;" horiz-adv-x="1329" 
d="M591 -20q-170 0 -279.5 84t-151 248t-7.5 404q34 244 123 411t222.5 253t302.5 86q168 0 276 -85t149 -251.5t7 -409.5q-34 -241 -121.5 -406t-220 -249.5t-300.5 -84.5zM605 62q148 0 260 72t184.5 218t103.5 368q31 223 -1 370.5t-123.5 220.5t-239.5 73
q-222 0 -364.5 -165.5t-189.5 -498.5q-31 -221 2 -367t126 -218.5t242 -72.5zM571 1567l246 190h58l190 -190h-112l-118 120l-160 -120h-104z" />
    <glyph glyph-name="Otilde" unicode="&#xd5;" horiz-adv-x="1329" 
d="M591 -20q-170 0 -279.5 84t-151 248t-7.5 404q34 244 123 411t222.5 253t302.5 86q168 0 276 -85t149 -251.5t7 -409.5q-34 -241 -121.5 -406t-220 -249.5t-300.5 -84.5zM605 62q148 0 260 72t184.5 218t103.5 368q31 223 -1 370.5t-123.5 220.5t-239.5 73
q-222 0 -364.5 -165.5t-189.5 -498.5q-31 -221 2 -367t126 -218.5t242 -72.5zM618 1661l-14 60q32 27 63.5 44.5t74.5 17.5q39 0 70.5 -12.5t63.5 -25t72 -12.5q35 0 58.5 11.5t51.5 30.5l18 -68q-21 -13 -53.5 -29.5t-86.5 -16.5q-46 0 -75.5 12t-56.5 24t-64 12
q-45 0 -72 -17t-50 -31z" />
    <glyph glyph-name="Odieresis" unicode="&#xd6;" horiz-adv-x="1329" 
d="M591 -20q-170 0 -279.5 84t-151 248t-7.5 404q34 244 123 411t222.5 253t302.5 86q168 0 276 -85t149 -251.5t7 -409.5q-34 -241 -121.5 -406t-220 -249.5t-300.5 -84.5zM605 62q148 0 260 72t184.5 218t103.5 368q31 223 -1 370.5t-123.5 220.5t-239.5 73
q-222 0 -364.5 -165.5t-189.5 -498.5q-31 -221 2 -367t126 -218.5t242 -72.5zM915 1738l16 120h88l-16 -120h-88zM683 1738l16 120h88l-16 -120h-88z" />
    <glyph glyph-name="multiply" unicode="&#xd7;" horiz-adv-x="947" 
d="M158 354l-42 54l732 692l42 -52zM744 354l-540 690l58 52l540 -688z" />
    <glyph glyph-name="Oslash" unicode="&#xd8;" horiz-adv-x="1346" 
d="M59 -26l-56 64l188 202q-36 89 -43.5 208.5t13.5 267.5q34 244 122.5 411t222 253t301.5 86q123 0 214.5 -45.5t149.5 -134.5l172 184l58 -62l-190 -204q35 -91 43 -212.5t-13 -271.5q-33 -241 -121 -406t-221.5 -249.5t-301.5 -84.5q-124 0 -216 45t-148 133zM613 64
q222 0 356 161.5t180 494.5q18 128 16.5 230.5t-24.5 181.5l-844 -904q92 -164 316 -164zM261 314l844 904q-45 83 -122 123.5t-188 40.5q-222 0 -359 -164.5t-185 -497.5q-16 -126 -14 -227t24 -179z" />
    <glyph glyph-name="Ugrave" unicode="&#xd9;" horiz-adv-x="1277" 
d="M585 -20q-151 0 -241 53.5t-121.5 164t-7.5 280.5l136 968h78l-140 -1002q-18 -126 9 -212.5t101 -131t196 -44.5q185 0 291 98t133 290l140 1002h71l-139 -998q-22 -157 -85 -261t-168 -155.5t-253 -51.5zM788 1567l-200 291h103l158 -291h-61z" />
    <glyph glyph-name="Uacute" unicode="&#xda;" horiz-adv-x="1277" 
d="M585 -20q-151 0 -241 53.5t-121.5 164t-7.5 280.5l136 968h78l-140 -1002q-18 -126 9 -212.5t101 -131t196 -44.5q185 0 291 98t133 290l140 1002h71l-139 -998q-22 -157 -85 -261t-168 -155.5t-253 -51.5zM749 1567l228 291h113l-270 -291h-71z" />
    <glyph glyph-name="Ucircumflex" unicode="&#xdb;" horiz-adv-x="1277" 
d="M585 -20q-151 0 -241 53.5t-121.5 164t-7.5 280.5l136 968h78l-140 -1002q-18 -126 9 -212.5t101 -131t196 -44.5q185 0 291 98t133 290l140 1002h71l-139 -998q-22 -157 -85 -261t-168 -155.5t-253 -51.5zM563 1567l246 190h58l190 -190h-112l-118 120l-160 -120h-104z
" />
    <glyph glyph-name="Udieresis" unicode="&#xdc;" horiz-adv-x="1277" 
d="M585 -20q-151 0 -241 53.5t-121.5 164t-7.5 280.5l136 968h78l-140 -1002q-18 -126 9 -212.5t101 -131t196 -44.5q185 0 291 98t133 290l140 1002h71l-139 -998q-22 -157 -85 -261t-168 -155.5t-253 -51.5zM907 1738l16 120h88l-16 -120h-88zM675 1738l16 120h88
l-16 -120h-88z" />
    <glyph glyph-name="Yacute" unicode="&#xdd;" horiz-adv-x="1012" 
d="M402 0l86 624l-328 822h80l296 -744l498 744h80l-553 -824l-88 -622h-71zM594 1571l228 291h113l-270 -291h-71z" />
    <glyph glyph-name="Thorn" unicode="&#xde;" horiz-adv-x="1173" 
d="M148 0l203 1446h80l-44 -316h333q142 0 245 -38.5t153 -120.5t31 -211q-20 -147 -93.5 -236t-185.5 -129.5t-248 -40.5h-344l-50 -354h-80zM289 436h345q116 0 209 31.5t153.5 102.5t76.5 190q16 108 -26 171t-130 90t-210 27h-332z" />
    <glyph glyph-name="germandbls" unicode="&#xdf;" horiz-adv-x="1040" 
d="M524 -20q-61 0 -131.5 19t-114.5 53l51 66q42 -28 84 -46t109 -18q126 0 209 65.5t100 182.5q13 90 -20 142.5t-90.5 82.5t-121.5 53q-41 14 -83.5 32.5t-68 55.5t-16.5 106q10 74 61 121t154 99q42 22 83.5 45t72 59t39.5 96q10 83 -38 130.5t-151 47.5q-119 0 -210 -80
t-113 -248l-148 -1044h-73l145 1034q14 97 51 173t93.5 129.5t128 81.5t153.5 28q106 0 159.5 -40t69 -99.5t7.5 -118.5q-11 -79 -48 -125.5t-87.5 -75.5t-102.5 -57q-89 -48 -126 -75.5t-44 -78.5q-6 -49 22 -70t104 -48q41 -15 92.5 -37t98 -59.5t71.5 -98.5t12 -155
q-15 -107 -72 -180t-138.5 -110.5t-172.5 -37.5z" />
    <glyph glyph-name="agrave" unicode="&#xe0;" horiz-adv-x="1060" 
d="M352 -20q-94 0 -158 34.5t-92 98t-17 151.5q24 174 139 253.5t353 88.5l220 8l15 100q17 125 -50 194.5t-189 69.5q-103 0 -187 -56.5t-114 -163.5h-78q15 73 65.5 141t133.5 111.5t194 43.5q101 0 173 -41t105 -116.5t18 -180.5l-100 -716h-66l24 200
q-81 -129 -183 -174.5t-206 -45.5zM373 54q59 0 123 23.5t120.5 64t95 90.5t45.5 102l28 202l-183 -4q-152 -3 -244 -31t-137.5 -84.5t-59.5 -146.5q-13 -102 45 -159t167 -57zM587 1155l-200 291h103l158 -291h-61z" />
    <glyph glyph-name="aacute" unicode="&#xe1;" horiz-adv-x="1060" 
d="M352 -20q-94 0 -158 34.5t-92 98t-17 151.5q24 174 139 253.5t353 88.5l220 8l15 100q17 125 -50 194.5t-189 69.5q-103 0 -187 -56.5t-114 -163.5h-78q15 73 65.5 141t133.5 111.5t194 43.5q101 0 173 -41t105 -116.5t18 -180.5l-100 -716h-66l24 200
q-81 -129 -183 -174.5t-206 -45.5zM373 54q59 0 123 23.5t120.5 64t95 90.5t45.5 102l28 202l-183 -4q-152 -3 -244 -31t-137.5 -84.5t-59.5 -146.5q-13 -102 45 -159t167 -57zM568 1155l228 291h113l-270 -291h-71z" />
    <glyph glyph-name="acircumflex" unicode="&#xe2;" horiz-adv-x="1060" 
d="M352 -20q-94 0 -158 34.5t-92 98t-17 151.5q24 174 139 253.5t353 88.5l220 8l15 100q17 125 -50 194.5t-189 69.5q-103 0 -187 -56.5t-114 -163.5h-78q15 73 65.5 141t133.5 111.5t194 43.5q101 0 173 -41t105 -116.5t18 -180.5l-100 -716h-66l24 200
q-81 -129 -183 -174.5t-206 -45.5zM373 54q59 0 123 23.5t120.5 64t95 90.5t45.5 102l28 202l-183 -4q-152 -3 -244 -31t-137.5 -84.5t-59.5 -146.5q-13 -102 45 -159t167 -57zM362 1155l246 190h58l190 -190h-112l-118 120l-160 -120h-104z" />
    <glyph glyph-name="atilde" unicode="&#xe3;" horiz-adv-x="1060" 
d="M352 -20q-94 0 -158 34.5t-92 98t-17 151.5q24 174 139 253.5t353 88.5l220 8l15 100q17 125 -50 194.5t-189 69.5q-103 0 -187 -56.5t-114 -163.5h-78q15 73 65.5 141t133.5 111.5t194 43.5q101 0 173 -41t105 -116.5t18 -180.5l-100 -716h-66l24 200
q-81 -129 -183 -174.5t-206 -45.5zM373 54q59 0 123 23.5t120.5 64t95 90.5t45.5 102l28 202l-183 -4q-152 -3 -244 -31t-137.5 -84.5t-59.5 -146.5q-13 -102 45 -159t167 -57zM410 1249l-14 60q32 27 63.5 44.5t74.5 17.5q39 0 70.5 -12.5t63.5 -25t72 -12.5
q35 0 58.5 11.5t51.5 30.5l18 -68q-21 -13 -53.5 -29.5t-86.5 -16.5q-46 0 -75.5 12t-56.5 24t-64 12q-45 0 -72 -17t-50 -31z" />
    <glyph glyph-name="adieresis" unicode="&#xe4;" horiz-adv-x="1060" 
d="M352 -20q-94 0 -158 34.5t-92 98t-17 151.5q24 174 139 253.5t353 88.5l220 8l15 100q17 125 -50 194.5t-189 69.5q-103 0 -187 -56.5t-114 -163.5h-78q15 73 65.5 141t133.5 111.5t194 43.5q101 0 173 -41t105 -116.5t18 -180.5l-100 -716h-66l24 200
q-81 -129 -183 -174.5t-206 -45.5zM373 54q59 0 123 23.5t120.5 64t95 90.5t45.5 102l28 202l-183 -4q-152 -3 -244 -31t-137.5 -84.5t-59.5 -146.5q-13 -102 45 -159t167 -57zM700 1326l16 120h88l-16 -120h-88zM468 1326l16 120h88l-16 -120h-88z" />
    <glyph glyph-name="aring" unicode="&#xe5;" horiz-adv-x="1060" 
d="M765 1497l-70 -133q52 -19 79.5 -68t18.5 -114q-12 -85 -71.5 -141t-136.5 -56q-76 0 -118 57.5t-31 143.5q9 73 63.5 126.5t123.5 59.5l46 125h96zM715 1179q8 51 -18 83.5t-70 32.5q-42 0 -78.5 -32.5t-43.5 -83.5q-6 -45 21 -80.5t69 -35.5q44 0 78.5 35.5t41.5 80.5z
M352 -20q-94 0 -158 34.5t-92 98t-17 151.5q24 174 139 253.5t353 88.5l220 8l15 100q17 125 -50 194.5t-189 69.5q-103 0 -187 -56.5t-114 -163.5h-78q15 73 65.5 141t133.5 111.5t194 43.5q101 0 173 -41t105 -116.5t18 -180.5l-100 -716h-66l24 200q-81 -129 -183 -174.5
t-206 -45.5zM373 54q59 0 123 23.5t120.5 64t95 90.5t45.5 102l28 202l-183 -4q-152 -3 -244 -31t-137.5 -84.5t-59.5 -146.5q-13 -102 45 -159t167 -57z" />
    <glyph glyph-name="ae" unicode="&#xe6;" horiz-adv-x="1723" 
d="M352 -20q-94 0 -158 34.5t-92.5 98t-16.5 151.5q25 174 140 254t354 88l223 8l14 100q17 125 -49 194.5t-188 69.5q-105 0 -186.5 -56.5t-111.5 -163.5h-78q15 73 64.5 141t131.5 111.5t194 43.5q127 0 206 -63.5t91 -176.5q65 116 165.5 178t228.5 62q124 0 203.5 -59
t110.5 -170.5t8 -270.5l-7 -56h-729q-16 -117 5.5 -217.5t90 -162.5t189.5 -62q114 0 203 59t120 161h78q-33 -100 -97.5 -166t-146.5 -98t-168 -32q-139 0 -231 75t-119 216q-26 -88 -97 -153.5t-162.5 -101.5t-182.5 -36zM375 54q107 0 192 53t138.5 129.5t63.5 146.5
l22 153l-187 -4q-153 -3 -245.5 -31t-138 -84.5t-58.5 -146.5q-14 -102 44.5 -159t168.5 -57zM882 574h650q17 115 -4.5 206.5t-84.5 144.5t-171 53q-118 0 -200 -60.5t-129.5 -153.5t-60.5 -190z" />
    <glyph glyph-name="ccedilla" unicode="&#xe7;" horiz-adv-x="1017" 
d="M362 -398q-42 0 -74 12t-58 34l28 56q17 -19 39.5 -31.5t64.5 -12.5q57 0 84.5 22t33.5 62q8 47 -23.5 69t-100.5 25q-7 0 -8 2.5t2 5.5l88 164h62l-64 -124q55 -5 83 -26t36.5 -51t4.5 -61q-7 -49 -36 -81.5t-71.5 -48.5t-90.5 -16zM453 -20q-125 0 -211 57.5
t-121.5 176t-10.5 300.5q23 162 85 283.5t164.5 189t244.5 67.5q87 0 158.5 -32.5t116.5 -98.5t50 -167h-79q-1 68 -33.5 118t-89.5 77t-133 27q-151 0 -262.5 -113.5t-144.5 -350.5q-29 -206 37.5 -333t239.5 -127q76 0 141 27t111.5 77t66.5 118h79q-33 -100 -96.5 -166
t-144.5 -98t-168 -32z" />
    <glyph glyph-name="egrave" unicode="&#xe8;" horiz-adv-x="1050" 
d="M471 -20q-126 0 -213 61.5t-124.5 179.5t-13.5 287q24 171 90 293.5t167.5 187.5t233.5 65q124 0 203.5 -59t110.5 -170.5t8 -270.5l-7 -56h-729q-16 -117 6 -217.5t90 -162.5t189 -62q114 0 203 59t120 161h78q-33 -100 -97.5 -166t-146.5 -98t-168 -32zM209 574h650
q17 115 -4.5 206.5t-84.5 144.5t-171 53q-118 0 -200 -60.5t-129.5 -153.5t-60.5 -190zM604 1155l-200 291h103l158 -291h-61z" />
    <glyph glyph-name="eacute" unicode="&#xe9;" horiz-adv-x="1050" 
d="M471 -20q-126 0 -213 61.5t-124.5 179.5t-13.5 287q24 171 90 293.5t167.5 187.5t233.5 65q124 0 203.5 -59t110.5 -170.5t8 -270.5l-7 -56h-729q-16 -117 6 -217.5t90 -162.5t189 -62q114 0 203 59t120 161h78q-33 -100 -97.5 -166t-146.5 -98t-168 -32zM209 574h650
q17 115 -4.5 206.5t-84.5 144.5t-171 53q-118 0 -200 -60.5t-129.5 -153.5t-60.5 -190zM565 1155l228 291h113l-270 -291h-71z" />
    <glyph glyph-name="ecircumflex" unicode="&#xea;" horiz-adv-x="1050" 
d="M471 -20q-126 0 -213 61.5t-124.5 179.5t-13.5 287q24 171 90 293.5t167.5 187.5t233.5 65q124 0 203.5 -59t110.5 -170.5t8 -270.5l-7 -56h-729q-16 -117 6 -217.5t90 -162.5t189 -62q114 0 203 59t120 161h78q-33 -100 -97.5 -166t-146.5 -98t-168 -32zM209 574h650
q17 115 -4.5 206.5t-84.5 144.5t-171 53q-118 0 -200 -60.5t-129.5 -153.5t-60.5 -190zM379 1155l246 190h58l190 -190h-112l-118 120l-160 -120h-104z" />
    <glyph glyph-name="edieresis" unicode="&#xeb;" horiz-adv-x="1050" 
d="M471 -20q-126 0 -213 61.5t-124.5 179.5t-13.5 287q24 171 90 293.5t167.5 187.5t233.5 65q124 0 203.5 -59t110.5 -170.5t8 -270.5l-7 -56h-729q-16 -117 6 -217.5t90 -162.5t189 -62q114 0 203 59t120 161h78q-33 -100 -97.5 -166t-146.5 -98t-168 -32zM209 574h650
q17 115 -4.5 206.5t-84.5 144.5t-171 53q-118 0 -200 -60.5t-129.5 -153.5t-60.5 -190zM723 1326l16 120h88l-16 -120h-88zM491 1326l16 120h88l-16 -120h-88z" />
    <glyph glyph-name="igrave" unicode="&#xec;" horiz-adv-x="433" 
d="M108 0l145 1034h73l-146 -1034h-72zM262 1155l-138 291h102l96 -291h-60z" />
    <glyph glyph-name="iacute" unicode="&#xed;" horiz-adv-x="433" 
d="M108 0l145 1034h73l-146 -1034h-72zM338 1155h-64l166 291h112z" />
    <glyph glyph-name="icircumflex" unicode="&#xee;" horiz-adv-x="433" 
d="M108 0l145 1034h73l-146 -1034h-72zM58 1155l246 190h58l190 -190h-112l-118 120l-160 -120h-104z" />
    <glyph glyph-name="idieresis" unicode="&#xef;" horiz-adv-x="433" 
d="M108 0l145 1034h73l-146 -1034h-72zM402 1326l16 120h88l-16 -120h-88zM170 1326l16 120h88l-16 -120h-88z" />
    <glyph glyph-name="eth" unicode="&#xf0;" horiz-adv-x="1047" 
d="M463 -20q-118 0 -198 53.5t-121 149.5t-41 221q0 104 25.5 217.5t82.5 211.5t151 159.5t230 61.5q150 0 227.5 -85t109.5 -231l-73 139q-22 148 -85.5 264.5t-138 201.5t-130.5 137h97q93 -81 172 -190.5t127.5 -259.5t48.5 -353q0 -117 -23 -239t-78 -226t-148.5 -168
t-234.5 -64zM473 54q115 0 191.5 57t121.5 146.5t64 190t19 187.5q0 169 -74.5 256t-213.5 87q-113 0 -190 -54t-123 -140t-66.5 -183.5t-20.5 -184.5q0 -156 69.5 -259t222.5 -103zM421 1175l-12 65l583 174l9 -66z" />
    <glyph glyph-name="ntilde" unicode="&#xf1;" horiz-adv-x="1060" 
d="M108 0l145 1034h65l-19 -154q31 49 82 88.5t117.5 62.5t143.5 23q96 0 165.5 -41t101 -126t12.5 -217l-94 -670h-72l95 670q22 150 -37.5 229t-179.5 79q-85 0 -161 -28t-127.5 -85t-63.5 -145l-102 -720h-71zM450 1249l-14 60q32 27 63.5 44.5t74.5 17.5
q39 0 70.5 -12.5t63.5 -25t72 -12.5q35 0 58.5 11.5t51.5 30.5l18 -68q-21 -13 -53.5 -29.5t-86.5 -16.5q-46 0 -75.5 12t-56.5 24t-64 12q-45 0 -72 -17t-50 -31z" />
    <glyph glyph-name="ograve" unicode="&#xf2;" horiz-adv-x="1044" 
d="M455 -20q-124 0 -210 58t-122.5 176.5t-12.5 299.5q21 162 81.5 283.5t161.5 189t242 67.5q123 0 207 -58.5t120 -178t12 -303.5q-21 -160 -81 -280t-159 -187t-239 -67zM465 54q100 0 181.5 50t137 152t75.5 258q18 139 -4.5 243.5t-89 162.5t-180.5 58
q-102 0 -184.5 -50t-138 -153t-76.5 -261q-18 -138 5 -241.5t91 -161t183 -57.5zM556 1155l-200 291h103l158 -291h-61z" />
    <glyph glyph-name="oacute" unicode="&#xf3;" horiz-adv-x="1044" 
d="M455 -20q-124 0 -210 58t-122.5 176.5t-12.5 299.5q21 162 81.5 283.5t161.5 189t242 67.5q123 0 207 -58.5t120 -178t12 -303.5q-21 -160 -81 -280t-159 -187t-239 -67zM465 54q100 0 181.5 50t137 152t75.5 258q18 139 -4.5 243.5t-89 162.5t-180.5 58
q-102 0 -184.5 -50t-138 -153t-76.5 -261q-18 -138 5 -241.5t91 -161t183 -57.5zM517 1155l228 291h113l-270 -291h-71z" />
    <glyph glyph-name="ocircumflex" unicode="&#xf4;" horiz-adv-x="1044" 
d="M455 -20q-124 0 -210 58t-122.5 176.5t-12.5 299.5q21 162 81.5 283.5t161.5 189t242 67.5q123 0 207 -58.5t120 -178t12 -303.5q-21 -160 -81 -280t-159 -187t-239 -67zM465 54q100 0 181.5 50t137 152t75.5 258q18 139 -4.5 243.5t-89 162.5t-180.5 58
q-102 0 -184.5 -50t-138 -153t-76.5 -261q-18 -138 5 -241.5t91 -161t183 -57.5zM331 1155l246 190h58l190 -190h-112l-118 120l-160 -120h-104z" />
    <glyph glyph-name="otilde" unicode="&#xf5;" horiz-adv-x="1044" 
d="M455 -20q-124 0 -210 58t-122.5 176.5t-12.5 299.5q21 162 81.5 283.5t161.5 189t242 67.5q123 0 207 -58.5t120 -178t12 -303.5q-21 -160 -81 -280t-159 -187t-239 -67zM465 54q100 0 181.5 50t137 152t75.5 258q18 139 -4.5 243.5t-89 162.5t-180.5 58
q-102 0 -184.5 -50t-138 -153t-76.5 -261q-18 -138 5 -241.5t91 -161t183 -57.5zM378 1249l-14 60q32 27 63.5 44.5t74.5 17.5q39 0 70.5 -12.5t63.5 -25t72 -12.5q35 0 58.5 11.5t51.5 30.5l18 -68q-21 -13 -53.5 -29.5t-86.5 -16.5q-46 0 -75.5 12t-56.5 24t-64 12
q-45 0 -72 -17t-50 -31z" />
    <glyph glyph-name="odieresis" unicode="&#xf6;" horiz-adv-x="1044" 
d="M455 -20q-124 0 -210 58t-122.5 176.5t-12.5 299.5q21 162 81.5 283.5t161.5 189t242 67.5q123 0 207 -58.5t120 -178t12 -303.5q-21 -160 -81 -280t-159 -187t-239 -67zM465 54q100 0 181.5 50t137 152t75.5 258q18 139 -4.5 243.5t-89 162.5t-180.5 58
q-102 0 -184.5 -50t-138 -153t-76.5 -261q-18 -138 5 -241.5t91 -161t183 -57.5zM675 1326l16 120h88l-16 -120h-88zM443 1326l16 120h88l-16 -120h-88z" />
    <glyph glyph-name="divide" unicode="&#xf7;" horiz-adv-x="980" 
d="M154 688l10 74l720 2l-10 -74zM392 340l22 154h146l-20 -154h-148zM480 960l20 154h148l-22 -154h-146z" />
    <glyph glyph-name="oslash" unicode="&#xf8;" horiz-adv-x="989" 
d="M18 -8l-54 56l1006 990l54 -56zM379 -20q-124 0 -210 58t-122.5 176.5t-12.5 299.5q21 162 81.5 283.5t161.5 189t242 67.5q123 0 207 -58.5t120 -178t12 -303.5q-21 -160 -81 -280t-159 -187t-239 -67zM389 54q100 0 181.5 50t137 152t75.5 258q18 139 -4.5 243.5
t-89 162.5t-180.5 58q-102 0 -184.5 -50t-138 -153t-76.5 -261q-18 -138 5 -241.5t91 -161t183 -57.5z" />
    <glyph glyph-name="ugrave" unicode="&#xf9;" horiz-adv-x="1074" 
d="M456 -20q-83 1 -148 24t-107.5 68t-59.5 113.5t-4 160.5l96 688h73l-97 -688q-19 -130 42 -210t211 -80q133 0 224.5 75t113.5 231l95 672h72l-146 -1034h-66l21 190q-26 -64 -71 -111.5t-107.5 -73.5t-141.5 -25zM596 1155l-200 291h103l158 -291h-61z" />
    <glyph glyph-name="uacute" unicode="&#xfa;" horiz-adv-x="1074" 
d="M456 -20q-83 1 -148 24t-107.5 68t-59.5 113.5t-4 160.5l96 688h73l-97 -688q-19 -130 42 -210t211 -80q133 0 224.5 75t113.5 231l95 672h72l-146 -1034h-66l21 190q-26 -64 -71 -111.5t-107.5 -73.5t-141.5 -25zM557 1155l228 291h113l-270 -291h-71z" />
    <glyph glyph-name="ucircumflex" unicode="&#xfb;" horiz-adv-x="1074" 
d="M456 -20q-83 1 -148 24t-107.5 68t-59.5 113.5t-4 160.5l96 688h73l-97 -688q-19 -130 42 -210t211 -80q133 0 224.5 75t113.5 231l95 672h72l-146 -1034h-66l21 190q-26 -64 -71 -111.5t-107.5 -73.5t-141.5 -25zM371 1155l246 190h58l190 -190h-112l-118 120l-160 -120
h-104z" />
    <glyph glyph-name="udieresis" unicode="&#xfc;" horiz-adv-x="1074" 
d="M456 -20q-83 1 -148 24t-107.5 68t-59.5 113.5t-4 160.5l96 688h73l-97 -688q-19 -130 42 -210t211 -80q133 0 224.5 75t113.5 231l95 672h72l-146 -1034h-66l21 190q-26 -64 -71 -111.5t-107.5 -73.5t-141.5 -25zM715 1326l16 120h88l-16 -120h-88zM483 1326l16 120h88
l-16 -120h-88z" />
    <glyph glyph-name="yacute" unicode="&#xfd;" horiz-adv-x="944" 
d="M93 -330q-69 0 -90.5 8l-21.5 8l8 54h102q59 0 99 17t66.5 46t44.5 65l68 138l-228 1028h78l204 -922l456 922h70l-582 -1184q-33 -65 -75 -104.5t-92 -57.5t-107 -18zM507 1155l228 291h113l-270 -291h-71z" />
    <glyph glyph-name="thorn" unicode="&#xfe;" horiz-adv-x="1082" 
d="M63 -322l248 1768h69l-78 -566q17 19 57.5 61t109.5 77.5t169 35.5q115 0 199.5 -57.5t123 -172.5t14.5 -288q-22 -166 -92.5 -291t-177 -195t-237.5 -70q-93 0 -155 32t-97 66q-12 14 -18 10t-9 -24l-53 -386h-73zM475 54q104 0 192.5 57t149.5 163t82 254
q21 155 -13.5 254.5t-106 147.5t-161.5 48q-89 0 -162.5 -43t-120 -105t-56.5 -120l-69 -508q56 -67 119.5 -107.5t145.5 -40.5z" />
    <glyph glyph-name="ydieresis" unicode="&#xff;" horiz-adv-x="944" 
d="M93 -330q-69 0 -90.5 8l-21.5 8l8 54h102q59 0 99 17t66.5 46t44.5 65l68 138l-228 1028h78l204 -922l456 922h70l-582 -1184q-33 -65 -75 -104.5t-92 -57.5t-107 -18zM665 1326l16 120h88l-16 -120h-88zM433 1326l16 120h88l-16 -120h-88z" />
    <glyph glyph-name="Amacron" unicode="&#x100;" horiz-adv-x="1304" 
d="M42 0l690 1446h102l282 -1446h-79l-88 456h-610l-220 -456h-77zM377 542h557l-160 820zM590 1677l10 74h452l-10 -74h-452z" />
    <glyph glyph-name="amacron" unicode="&#x101;" horiz-adv-x="1060" 
d="M352 -20q-94 0 -158 34.5t-92 98t-17 151.5q24 174 139 253.5t353 88.5l220 8l15 100q17 125 -50 194.5t-189 69.5q-103 0 -187 -56.5t-114 -163.5h-78q15 73 65.5 141t133.5 111.5t194 43.5q101 0 173 -41t105 -116.5t18 -180.5l-100 -716h-66l24 200
q-81 -129 -183 -174.5t-206 -45.5zM373 54q59 0 123 23.5t120.5 64t95 90.5t45.5 102l28 202l-183 -4q-152 -3 -244 -31t-137.5 -84.5t-59.5 -146.5q-13 -102 45 -159t167 -57zM398 1265l10 74h452l-10 -74h-452z" />
    <glyph glyph-name="Abreve" unicode="&#x102;" horiz-adv-x="1304" 
d="M42 0l690 1446h102l282 -1446h-79l-88 456h-610l-220 -456h-77zM377 542h557l-160 820zM795 1567q-71 0 -115.5 28t-66 69t-24.5 81h88q6 -14 18 -37.5t38 -42t74 -18.5q63 0 102 35t60 63h90q-14 -34 -48.5 -75.5t-88.5 -72t-127 -30.5z" />
    <glyph glyph-name="abreve" unicode="&#x103;" horiz-adv-x="1060" 
d="M352 -20q-94 0 -158 34.5t-92 98t-17 151.5q24 174 139 253.5t353 88.5l220 8l15 100q17 125 -50 194.5t-189 69.5q-103 0 -187 -56.5t-114 -163.5h-78q15 73 65.5 141t133.5 111.5t194 43.5q101 0 173 -41t105 -116.5t18 -180.5l-100 -716h-66l24 200
q-81 -129 -183 -174.5t-206 -45.5zM373 54q59 0 123 23.5t120.5 64t95 90.5t45.5 102l28 202l-183 -4q-152 -3 -244 -31t-137.5 -84.5t-59.5 -146.5q-13 -102 45 -159t167 -57zM602 1151q-71 0 -115.5 28t-66 69t-24.5 81h88q6 -14 18 -37.5t38 -42t74 -18.5q63 0 102 35
t60 63h90q-14 -34 -48.5 -75.5t-88.5 -72t-127 -30.5z" />
    <glyph glyph-name="Aogonek" unicode="&#x104;" horiz-adv-x="1304" 
d="M42 0l690 1446h102l282 -1446h-79l-88 456h-610l-220 -456h-77zM377 542h557l-160 820zM962 -328q-86 0 -119 43t-24 109q9 65 59 113.5t167 84.5l60 -18q-96 -45 -147.5 -86t-60.5 -98q-4 -40 16.5 -61t75.5 -21q47 0 85 11.5t51 18.5l-10 -62q-22 -12 -64 -23t-89 -11z
" />
    <glyph glyph-name="aogonek" unicode="&#x105;" horiz-adv-x="1016" 
d="M352 -20q-94 0 -158 34.5t-92 98t-17 151.5q24 174 139 253.5t353 88.5l220 8l15 100q17 125 -50 194.5t-189 69.5q-103 0 -187 -56.5t-114 -163.5h-78q15 73 65.5 141t133.5 111.5t194 43.5q101 0 173 -41t105 -116.5t18 -180.5l-100 -716h-66l24 200
q-81 -129 -183 -174.5t-206 -45.5zM373 54q59 0 123 23.5t120.5 64t95 90.5t45.5 102l28 202l-183 -4q-152 -3 -244 -31t-137.5 -84.5t-59.5 -146.5q-13 -102 45 -159t167 -57zM641 -324q-86 0 -119 43t-24 109q9 65 59 113.5t167 84.5l60 -18q-96 -45 -147.5 -86t-60.5 -98
q-4 -40 16.5 -61t75.5 -21q47 0 85 11.5t51 18.5l-10 -62q-22 -12 -64 -23t-89 -11z" />
    <glyph glyph-name="Cacute" unicode="&#x106;" horiz-adv-x="1252" 
d="M589 -20q-173 0 -281 83.5t-147 248t-7 408.5q24 183 76 322.5t131.5 233.5t185 142t235.5 48q132 0 225 -61.5t141 -160.5t45 -210h-82q-5 94 -43.5 173.5t-111.5 128t-185 48.5t-202 -41.5t-157 -124t-111 -207t-66 -291.5q-43 -333 48 -495.5t316 -162.5
q112 0 197.5 48t144.5 127.5t89 173.5h82q-19 -82 -66 -159.5t-116 -138.5t-155.5 -97t-185.5 -36zM735 1567l228 291h113l-270 -291h-71z" />
    <glyph glyph-name="cacute" unicode="&#x107;" horiz-adv-x="1017" 
d="M453 -20q-125 0 -211 57.5t-121.5 176t-10.5 300.5q23 162 85 283.5t164.5 189t244.5 67.5q87 0 158.5 -32.5t116.5 -98.5t50 -167h-79q-1 68 -33.5 118t-89.5 77t-133 27q-151 0 -262.5 -113.5t-144.5 -350.5q-29 -206 37.5 -333t239.5 -127q76 0 141 27t111.5 77
t66.5 118h79q-33 -100 -96.5 -166t-144.5 -98t-168 -32zM555 1155l228 291h113l-270 -291h-71z" />
    <glyph glyph-name="Ccircumflex" unicode="&#x108;" horiz-adv-x="1252" 
d="M589 -20q-173 0 -281 83.5t-147 248t-7 408.5q24 183 76 322.5t131.5 233.5t185 142t235.5 48q132 0 225 -61.5t141 -160.5t45 -210h-82q-5 94 -43.5 173.5t-111.5 128t-185 48.5t-202 -41.5t-157 -124t-111 -207t-66 -291.5q-43 -333 48 -495.5t316 -162.5
q112 0 197.5 48t144.5 127.5t89 173.5h82q-19 -82 -66 -159.5t-116 -138.5t-155.5 -97t-185.5 -36zM549 1567l246 190h58l190 -190h-112l-118 120l-160 -120h-104z" />
    <glyph glyph-name="ccircumflex" unicode="&#x109;" horiz-adv-x="1017" 
d="M453 -20q-125 0 -211 57.5t-121.5 176t-10.5 300.5q23 162 85 283.5t164.5 189t244.5 67.5q87 0 158.5 -32.5t116.5 -98.5t50 -167h-79q-1 68 -33.5 118t-89.5 77t-133 27q-151 0 -262.5 -113.5t-144.5 -350.5q-29 -206 37.5 -333t239.5 -127q76 0 141 27t111.5 77
t66.5 118h79q-33 -100 -96.5 -166t-144.5 -98t-168 -32zM369 1155l246 190h58l190 -190h-112l-118 120l-160 -120h-104z" />
    <glyph glyph-name="Cdotaccent" unicode="&#x10a;" horiz-adv-x="1252" 
d="M589 -20q-173 0 -281 83.5t-147 248t-7 408.5q24 183 76 322.5t131.5 233.5t185 142t235.5 48q132 0 225 -61.5t141 -160.5t45 -210h-82q-5 94 -43.5 173.5t-111.5 128t-185 48.5t-202 -41.5t-157 -124t-111 -207t-66 -291.5q-43 -333 48 -495.5t316 -162.5
q112 0 197.5 48t144.5 127.5t89 173.5h82q-19 -82 -66 -159.5t-116 -138.5t-155.5 -97t-185.5 -36zM777 1738l16 120h88l-16 -120h-88z" />
    <glyph glyph-name="cdotaccent" unicode="&#x10b;" horiz-adv-x="1017" 
d="M453 -20q-125 0 -211 57.5t-121.5 176t-10.5 300.5q23 162 85 283.5t164.5 189t244.5 67.5q87 0 158.5 -32.5t116.5 -98.5t50 -167h-79q-1 68 -33.5 118t-89.5 77t-133 27q-151 0 -262.5 -113.5t-144.5 -350.5q-29 -206 37.5 -333t239.5 -127q76 0 141 27t111.5 77
t66.5 118h79q-33 -100 -96.5 -166t-144.5 -98t-168 -32zM597 1326l16 120h88l-16 -120h-88z" />
    <glyph glyph-name="Ccaron" unicode="&#x10c;" horiz-adv-x="1252" 
d="M589 -20q-173 0 -281 83.5t-147 248t-7 408.5q24 183 76 322.5t131.5 233.5t185 142t235.5 48q132 0 225 -61.5t141 -160.5t45 -210h-82q-5 94 -43.5 173.5t-111.5 128t-185 48.5t-202 -41.5t-157 -124t-111 -207t-66 -291.5q-43 -333 48 -495.5t316 -162.5
q112 0 197.5 48t144.5 127.5t89 173.5h82q-19 -82 -66 -159.5t-116 -138.5t-155.5 -97t-185.5 -36zM768 1566l-194 190h106l126 -120l154 120h110l-242 -190h-60z" />
    <glyph glyph-name="ccaron" unicode="&#x10d;" horiz-adv-x="1017" 
d="M453 -20q-125 0 -211 57.5t-121.5 176t-10.5 300.5q23 162 85 283.5t164.5 189t244.5 67.5q87 0 158.5 -32.5t116.5 -98.5t50 -167h-79q-1 68 -33.5 118t-89.5 77t-133 27q-151 0 -262.5 -113.5t-144.5 -350.5q-29 -206 37.5 -333t239.5 -127q76 0 141 27t111.5 77
t66.5 118h79q-33 -100 -96.5 -166t-144.5 -98t-168 -32zM588 1154l-194 190h106l126 -120l154 120h110l-242 -190h-60z" />
    <glyph glyph-name="Dcaron" unicode="&#x10e;" horiz-adv-x="1266" 
d="M150 0l201 1446q2 0 69.5 -1t148.5 -1q128 -1 227.5 -21.5t172 -62.5t119.5 -104.5t70 -147.5t23 -192q0 -125 -18 -241t-58 -218.5t-104 -186t-156.5 -144t-215.5 -93.5t-281 -33h-198zM240 82h109q211 0 355.5 60.5t232.5 170.5t127 260.5t39 330.5q0 178 -65.5 278
t-190.5 141t-303 41h-124zM838 1566l-194 190h106l126 -120l154 120h110l-242 -190h-60z" />
    <glyph glyph-name="dcaron" unicode="&#x10f;" horiz-adv-x="1071" 
d="M441 -20q-181 0 -273.5 132.5t-57.5 407.5q32 240 149.5 387t321.5 147q86 0 144 -25t93.5 -61t53 -70t21.5 -52l84 640h74l-194 -1486h-66l22 212q-7 -18 -30 -55.5t-66 -78.5t-110.5 -69.5t-165.5 -28.5zM452 54q188 0 278 114.5t123 364.5q16 136 -3 236t-84 154.5
t-188 54.5q-148 0 -252.5 -109t-133.5 -336q-28 -215 34 -347t226 -132zM1088 1146l88 166l-33 8l22 166h97l-23 -174l-90 -166h-61z" />
    <glyph glyph-name="Dcroat" unicode="&#x110;" horiz-adv-x="1297" 
d="M106 688v82h597v-82h-597zM181 0l201 1446q2 0 69.5 -1t148.5 -1q128 -1 227.5 -21.5t172 -62.5t119.5 -104.5t70 -147.5t23 -192q0 -125 -18 -241t-58 -218.5t-104 -186t-156.5 -144t-215.5 -93.5t-281 -33h-198zM271 82h109q211 0 355.5 60.5t232.5 170.5t127 260.5
t39 330.5q0 178 -65.5 278t-190.5 141t-303 41h-124z" />
    <glyph glyph-name="dcroat" unicode="&#x111;" horiz-adv-x="1091" 
d="M568 1222v68h562v-68h-562zM441 -20q-181 0 -273.5 132.5t-57.5 407.5q32 240 149.5 387t321.5 147q86 0 144 -25t93.5 -61t53 -70t21.5 -52l84 640h74l-194 -1486h-66l22 212q-7 -18 -30 -55.5t-66 -78.5t-110.5 -69.5t-165.5 -28.5zM452 54q188 0 278 114.5t123 364.5
q16 136 -3 236t-84 154.5t-188 54.5q-148 0 -252.5 -109t-133.5 -336q-28 -215 34 -347t226 -132z" />
    <glyph glyph-name="Emacron" unicode="&#x112;" horiz-adv-x="1150" 
d="M147 0l204 1446h764l-12 -80h-692l-84 -594h644l-10 -82h-644l-86 -606l718 -2l-12 -82h-790zM522 1677l10 74h452l-10 -74h-452z" />
    <glyph glyph-name="emacron" unicode="&#x113;" horiz-adv-x="1050" 
d="M471 -20q-126 0 -213 61.5t-124.5 179.5t-13.5 287q24 171 90 293.5t167.5 187.5t233.5 65q124 0 203.5 -59t110.5 -170.5t8 -270.5l-7 -56h-729q-16 -117 6 -217.5t90 -162.5t189 -62q114 0 203 59t120 161h78q-33 -100 -97.5 -166t-146.5 -98t-168 -32zM209 574h650
q17 115 -4.5 206.5t-84.5 144.5t-171 53q-118 0 -200 -60.5t-129.5 -153.5t-60.5 -190zM416 1265l10 74h452l-10 -74h-452z" />
    <glyph glyph-name="Ebreve" unicode="&#x114;" horiz-adv-x="1150" 
d="M147 0l204 1446h764l-12 -80h-692l-84 -594h644l-10 -82h-644l-86 -606l718 -2l-12 -82h-790zM727 1567q-71 0 -115.5 28t-66 69t-24.5 81h88q6 -14 18 -37.5t38 -42t74 -18.5q63 0 102 35t60 63h90q-14 -34 -48.5 -75.5t-88.5 -72t-127 -30.5z" />
    <glyph glyph-name="ebreve" unicode="&#x115;" horiz-adv-x="1050" 
d="M471 -20q-126 0 -213 61.5t-124.5 179.5t-13.5 287q24 171 90 293.5t167.5 187.5t233.5 65q124 0 203.5 -59t110.5 -170.5t8 -270.5l-7 -56h-729q-16 -117 6 -217.5t90 -162.5t189 -62q114 0 203 59t120 161h78q-33 -100 -97.5 -166t-146.5 -98t-168 -32zM209 574h650
q17 115 -4.5 206.5t-84.5 144.5t-171 53q-118 0 -200 -60.5t-129.5 -153.5t-60.5 -190zM621 1155q-71 0 -115.5 28t-66 69t-24.5 81h88q6 -14 18 -37.5t38 -42t74 -18.5q63 0 102 35t60 63h90q-14 -34 -48.5 -75.5t-88.5 -72t-127 -30.5z" />
    <glyph glyph-name="Edotaccent" unicode="&#x116;" horiz-adv-x="1150" 
d="M147 0l204 1446h764l-12 -80h-692l-84 -594h644l-10 -82h-644l-86 -606l718 -2l-12 -82h-790zM713 1738l16 120h88l-16 -120h-88z" />
    <glyph glyph-name="edotaccent" unicode="&#x117;" horiz-adv-x="1050" 
d="M471 -20q-126 0 -213 61.5t-124.5 179.5t-13.5 287q24 171 90 293.5t167.5 187.5t233.5 65q124 0 203.5 -59t110.5 -170.5t8 -270.5l-7 -56h-729q-16 -117 6 -217.5t90 -162.5t189 -62q114 0 203 59t120 161h78q-33 -100 -97.5 -166t-146.5 -98t-168 -32zM209 574h650
q17 115 -4.5 206.5t-84.5 144.5t-171 53q-118 0 -200 -60.5t-129.5 -153.5t-60.5 -190zM607 1326l16 120h88l-16 -120h-88z" />
    <glyph glyph-name="Eogonek" unicode="&#x118;" horiz-adv-x="1150" 
d="M147 0l204 1446h764l-12 -80h-692l-84 -594h644l-10 -82h-644l-86 -606l718 -2l-12 -82h-790zM796 -332q-86 0 -119 43t-24 109q9 65 59 113.5t167 84.5l60 -18q-96 -45 -147.5 -86t-60.5 -98q-4 -40 16.5 -61t75.5 -21q47 0 85 11.5t51 18.5l-10 -62q-22 -12 -64 -23
t-89 -11z" />
    <glyph glyph-name="eogonek" unicode="&#x119;" horiz-adv-x="1050" 
d="M611 1054q124 0 202.5 -58.5t109 -170t10.5 -271.5l-7 -56h-729q-16 -117 6 -217.5t90 -162.5t189 -62q114 0 203 59t120 161h78q-32 -97 -94 -161.5t-139 -98.5q-96 -42 -147 -84.5t-60 -99.5q-4 -40 16.5 -61t75.5 -21q47 0 85 11.5t51 18.5l-10 -62q-22 -12 -64 -23
t-89 -11q-86 0 -119 43t-24 109q6 43 38 82.5t62 61.5q-124 2 -210 64t-122.5 179.5t-12.5 284.5q24 171 90 293.5t167.5 187.5t233.5 65zM209 574h650q17 115 -4.5 206.5t-84.5 144.5t-171 53q-118 0 -200 -60.5t-129.5 -153.5t-60.5 -190z" />
    <glyph glyph-name="Ecaron" unicode="&#x11a;" horiz-adv-x="1150" 
d="M147 0l204 1446h764l-12 -80h-692l-84 -594h644l-10 -82h-644l-86 -606l718 -2l-12 -82h-790zM704 1566l-194 190h106l126 -120l154 120h110l-242 -190h-60z" />
    <glyph glyph-name="ecaron" unicode="&#x11b;" horiz-adv-x="1050" 
d="M471 -20q-126 0 -213 61.5t-124.5 179.5t-13.5 287q24 171 90 293.5t167.5 187.5t233.5 65q124 0 203.5 -59t110.5 -170.5t8 -270.5l-7 -56h-729q-16 -117 6 -217.5t90 -162.5t189 -62q114 0 203 59t120 161h78q-33 -100 -97.5 -166t-146.5 -98t-168 -32zM209 574h650
q17 115 -4.5 206.5t-84.5 144.5t-171 53q-118 0 -200 -60.5t-129.5 -153.5t-60.5 -190zM598 1154l-194 190h106l126 -120l154 120h110l-242 -190h-60z" />
    <glyph glyph-name="Gcircumflex" unicode="&#x11c;" horiz-adv-x="1339" 
d="M585 -20q-169 0 -277 84t-148 248.5t-6 407.5q34 241 121 407.5t218.5 252.5t300.5 86q112 0 204.5 -60.5t146.5 -159t48 -212.5h-81q-1 91 -43 171t-116 129.5t-171 49.5q-141 0 -254 -73.5t-189.5 -221t-108.5 -369.5q-23 -166 -9 -290.5t62.5 -207t127.5 -123.5
t185 -41q107 0 191.5 42t144.5 109t95.5 143.5t45.5 145.5l24 168h-374l10 70h446l-103 -736h-73l36 252q-47 -76 -113.5 -137.5t-152 -98t-188.5 -36.5zM546 1567l246 190h58l190 -190h-112l-118 120l-160 -120h-104z" />
    <glyph glyph-name="gcircumflex" unicode="&#x11d;" horiz-adv-x="1148" 
d="M423 -342q-195 0 -304.5 71t-90.5 219q8 59 36 102t63.5 73.5t66 49.5t42.5 29q-16 12 -32.5 25t-26.5 32.5t-6 50.5q5 42 46 77t114 57q-69 44 -105 114t-24 162q13 99 63.5 173.5t140 115.5t219.5 41q89 0 149.5 -24t109.5 -74q10 5 41 18.5t69 30t69.5 30t40.5 17.5
l-15 -116l-176 -40q32 -79 21 -172q-12 -93 -61 -163.5t-135 -109.5t-210 -39h-10h-10q-144 -3 -200 -33t-61 -63q-4 -33 35.5 -48t153.5 -24q41 -3 94.5 -6t120.5 -8q124 -7 192 -72.5t51 -191.5q-18 -136 -134 -220t-337 -84zM449 -268q153 0 253.5 56.5t115.5 173.5
q10 77 -33 127t-147 57l-315 22q-28 2 -77 -24.5t-91 -75t-51 -112.5q-13 -100 71 -162t274 -62zM540 482q131 0 218.5 59t103.5 183q17 129 -55 190.5t-203 61.5q-133 0 -222.5 -62t-106.5 -190q-16 -118 53 -180t212 -62zM353 1155l246 190h58l190 -190h-112l-118 120
l-160 -120h-104z" />
    <glyph glyph-name="Gbreve" unicode="&#x11e;" horiz-adv-x="1339" 
d="M585 -20q-169 0 -277 84t-148 248.5t-6 407.5q34 241 121 407.5t218.5 252.5t300.5 86q112 0 204.5 -60.5t146.5 -159t48 -212.5h-81q-1 91 -43 171t-116 129.5t-171 49.5q-141 0 -254 -73.5t-189.5 -221t-108.5 -369.5q-23 -166 -9 -290.5t62.5 -207t127.5 -123.5
t185 -41q107 0 191.5 42t144.5 109t95.5 143.5t45.5 145.5l24 168h-374l10 70h446l-103 -736h-73l36 252q-47 -76 -113.5 -137.5t-152 -98t-188.5 -36.5zM788 1567q-71 0 -115.5 28t-66 69t-24.5 81h88q6 -14 18 -37.5t38 -42t74 -18.5q63 0 102 35t60 63h90
q-14 -34 -48.5 -75.5t-88.5 -72t-127 -30.5z" />
    <glyph glyph-name="gbreve" unicode="&#x11f;" horiz-adv-x="1148" 
d="M423 -342q-195 0 -304.5 71t-90.5 219q8 59 36 102t63.5 73.5t66 49.5t42.5 29q-16 12 -32.5 25t-26.5 32.5t-6 50.5q5 42 46 77t114 57q-69 44 -105 114t-24 162q13 99 63.5 173.5t140 115.5t219.5 41q89 0 149.5 -24t109.5 -74q10 5 41 18.5t69 30t69.5 30t40.5 17.5
l-15 -116l-176 -40q32 -79 21 -172q-12 -93 -61 -163.5t-135 -109.5t-210 -39h-10h-10q-144 -3 -200 -33t-61 -63q-4 -33 35.5 -48t153.5 -24q41 -3 94.5 -6t120.5 -8q124 -7 192 -72.5t51 -191.5q-18 -136 -134 -220t-337 -84zM449 -268q153 0 253.5 56.5t115.5 173.5
q10 77 -33 127t-147 57l-315 22q-28 2 -77 -24.5t-91 -75t-51 -112.5q-13 -100 71 -162t274 -62zM540 482q131 0 218.5 59t103.5 183q17 129 -55 190.5t-203 61.5q-133 0 -222.5 -62t-106.5 -190q-16 -118 53 -180t212 -62zM595 1155q-71 0 -115.5 28t-66 69t-24.5 81h88
q6 -14 18 -37.5t38 -42t74 -18.5q63 0 102 35t60 63h90q-14 -34 -48.5 -75.5t-88.5 -72t-127 -30.5z" />
    <glyph glyph-name="Gdotaccent" unicode="&#x120;" horiz-adv-x="1339" 
d="M585 -20q-169 0 -277 84t-148 248.5t-6 407.5q34 241 121 407.5t218.5 252.5t300.5 86q112 0 204.5 -60.5t146.5 -159t48 -212.5h-81q-1 91 -43 171t-116 129.5t-171 49.5q-141 0 -254 -73.5t-189.5 -221t-108.5 -369.5q-23 -166 -9 -290.5t62.5 -207t127.5 -123.5
t185 -41q107 0 191.5 42t144.5 109t95.5 143.5t45.5 145.5l24 168h-374l10 70h446l-103 -736h-73l36 252q-47 -76 -113.5 -137.5t-152 -98t-188.5 -36.5zM774 1738l16 120h88l-16 -120h-88z" />
    <glyph glyph-name="gdotaccent" unicode="&#x121;" horiz-adv-x="1148" 
d="M423 -342q-195 0 -304.5 71t-90.5 219q8 59 36 102t63.5 73.5t66 49.5t42.5 29q-16 12 -32.5 25t-26.5 32.5t-6 50.5q5 42 46 77t114 57q-69 44 -105 114t-24 162q13 99 63.5 173.5t140 115.5t219.5 41q89 0 149.5 -24t109.5 -74q10 5 41 18.5t69 30t69.5 30t40.5 17.5
l-15 -116l-176 -40q32 -79 21 -172q-12 -93 -61 -163.5t-135 -109.5t-210 -39h-10h-10q-144 -3 -200 -33t-61 -63q-4 -33 35.5 -48t153.5 -24q41 -3 94.5 -6t120.5 -8q124 -7 192 -72.5t51 -191.5q-18 -136 -134 -220t-337 -84zM449 -268q153 0 253.5 56.5t115.5 173.5
q10 77 -33 127t-147 57l-315 22q-28 2 -77 -24.5t-91 -75t-51 -112.5q-13 -100 71 -162t274 -62zM540 482q131 0 218.5 59t103.5 183q17 129 -55 190.5t-203 61.5q-133 0 -222.5 -62t-106.5 -190q-16 -118 53 -180t212 -62zM581 1326l16 120h88l-16 -120h-88z" />
    <glyph glyph-name="uni0122" unicode="&#x122;" horiz-adv-x="1339" 
d="M585 -20q-169 0 -277 84t-148 248.5t-6 407.5q34 241 121 407.5t218.5 252.5t300.5 86q112 0 204.5 -60.5t146.5 -159t48 -212.5h-81q-1 91 -43 171t-116 129.5t-171 49.5q-141 0 -254 -73.5t-189.5 -221t-108.5 -369.5q-23 -166 -9 -290.5t62.5 -207t127.5 -123.5
t185 -41q107 0 191.5 42t144.5 109t95.5 143.5t45.5 145.5l24 168h-374l10 70h446l-103 -736h-73l36 252q-47 -76 -113.5 -137.5t-152 -98t-188.5 -36.5zM443 -320l80 99h-41l17 121h116l-15 -103l-112 -117h-45z" />
    <glyph glyph-name="uni0123" unicode="&#x123;" horiz-adv-x="1148" 
d="M423 -342q-195 0 -304.5 71t-90.5 219q8 59 36 102t63.5 73.5t66 49.5t42.5 29q-16 12 -32.5 25t-26.5 32.5t-6 50.5q5 42 46 77t114 57q-69 44 -105 114t-24 162q13 99 63.5 173.5t140 115.5t219.5 41q89 0 149.5 -24t109.5 -74q10 5 41 18.5t69 30t69.5 30t40.5 17.5
l-15 -116l-176 -40q32 -79 21 -172q-12 -93 -61 -163.5t-135 -109.5t-210 -39h-10h-10q-144 -3 -200 -33t-61 -63q-4 -33 35.5 -48t153.5 -24q41 -3 94.5 -6t120.5 -8q124 -7 192 -72.5t51 -191.5q-18 -136 -134 -220t-337 -84zM449 -268q153 0 253.5 56.5t115.5 173.5
q10 77 -33 127t-147 57l-315 22q-28 2 -77 -24.5t-91 -75t-51 -112.5q-13 -100 71 -162t274 -62zM540 482q131 0 218.5 59t103.5 183q17 129 -55 190.5t-203 61.5q-133 0 -222.5 -62t-106.5 -190q-16 -118 53 -180t212 -62zM541 1155l24 170l88 130h62l-84 -138h46l-24 -162
h-112z" />
    <glyph glyph-name="Hcircumflex" unicode="&#x124;" horiz-adv-x="1444" 
d="M148 0l203 1446h72l-92 -652h860l91 652h72l-203 -1446h-72l100 712h-859l-100 -712h-72zM630 1567l246 190h58l190 -190h-112l-118 120l-160 -120h-104z" />
    <glyph glyph-name="hcircumflex" unicode="&#x125;" horiz-adv-x="1080" 
d="M123 0l193 1486h67l-79 -606q47 74 138 124t208 50q95 0 166 -36.5t106.5 -101.5t23.5 -150l-99 -766h-73l96 736q15 114 -47.5 178t-184.5 64q-85 0 -160.5 -28t-126.5 -85t-62 -145l-94 -720h-72zM134 1567l246 190h58l190 -190h-112l-118 120l-160 -120h-104z" />
    <glyph glyph-name="Hbar" unicode="&#x126;" horiz-adv-x="1491" 
d="M106 1128l12 78h1450l-12 -78h-1450zM188 0l203 1446h72l-92 -652h860l91 652h72l-203 -1446h-72l100 712h-859l-100 -712h-72z" />
    <glyph glyph-name="hbar" unicode="&#x127;" horiz-adv-x="1180" 
d="M141 1222l8 68h564l-8 -68h-564zM223 0l193 1486h67l-79 -606q47 74 138 124t208 50q95 0 166 -36.5t106.5 -101.5t23.5 -150l-99 -766h-73l96 736q15 114 -47.5 178t-184.5 64q-85 0 -160.5 -28t-126.5 -85t-62 -145l-94 -720h-72z" />
    <glyph glyph-name="Itilde" unicode="&#x128;" horiz-adv-x="514" 
d="M149 0l202 1446h72l-202 -1446h-72zM206 1661l-14 60q32 27 63.5 44.5t74.5 17.5q39 0 70.5 -12.5t63.5 -25t72 -12.5q35 0 58.5 11.5t51.5 30.5l18 -68q-21 -13 -53.5 -29.5t-86.5 -16.5q-46 0 -75.5 12t-56.5 24t-64 12q-45 0 -72 -17t-50 -31z" />
    <glyph glyph-name="itilde" unicode="&#x129;" horiz-adv-x="433" 
d="M108 0l145 1034h73l-146 -1034h-72zM105 1249l-14 60q32 27 63.5 44.5t74.5 17.5q39 0 70.5 -12.5t63.5 -25t72 -12.5q35 0 58.5 11.5t51.5 30.5l18 -68q-21 -13 -53.5 -29.5t-86.5 -16.5q-46 0 -75.5 12t-56.5 24t-64 12q-45 0 -72 -17t-50 -31z" />
    <glyph glyph-name="Imacron" unicode="&#x12a;" horiz-adv-x="514" 
d="M149 0l202 1446h72l-202 -1446h-72zM196 1677l10 74h452l-10 -74h-452z" />
    <glyph glyph-name="imacron" unicode="&#x12b;" horiz-adv-x="433" 
d="M108 0l145 1034h73l-146 -1034h-72zM95 1265l10 74h452l-10 -74h-452z" />
    <glyph glyph-name="Ibreve" unicode="&#x12c;" horiz-adv-x="514" 
d="M149 0l202 1446h72l-202 -1446h-72zM401 1567q-71 0 -115.5 28t-66 69t-24.5 81h88q6 -14 18 -37.5t38 -42t74 -18.5q63 0 102 35t60 63h90q-14 -34 -48.5 -75.5t-88.5 -72t-127 -30.5z" />
    <glyph glyph-name="ibreve" unicode="&#x12d;" horiz-adv-x="433" 
d="M108 0l145 1034h73l-146 -1034h-72zM300 1155q-71 0 -115.5 28t-66 69t-24.5 81h88q6 -14 18 -37.5t38 -42t74 -18.5q63 0 102 35t60 63h90q-14 -34 -48.5 -75.5t-88.5 -72t-127 -30.5z" />
    <glyph glyph-name="Iogonek" unicode="&#x12e;" horiz-adv-x="514" 
d="M149 0l202 1446h72l-202 -1446h-72zM78 -332q-86 0 -119 43t-24 109q9 65 59 113.5t167 84.5l60 -18q-96 -45 -147.5 -86t-60.5 -98q-4 -40 16.5 -61t75.5 -21q47 0 85 11.5t51 18.5l-10 -62q-22 -12 -64 -23t-89 -11z" />
    <glyph glyph-name="iogonek" unicode="&#x12f;" horiz-adv-x="449" 
d="M115 0l146 1034h73l-145 -1034h-74zM295 1326l16 120h88l-16 -120h-88zM34 -326q-86 0 -119 43t-24 109q9 65 59 113.5t167 84.5l60 -18q-96 -45 -147.5 -86t-60.5 -98q-4 -40 16.5 -61t75.5 -21q47 0 85 11.5t51 18.5l-10 -62q-22 -12 -64 -23t-89 -11z" />
    <glyph glyph-name="Idotaccent" unicode="&#x130;" horiz-adv-x="514" 
d="M149 0l202 1446h72l-202 -1446h-72zM387 1738l16 120h88l-16 -120h-88z" />
    <glyph glyph-name="dotlessi" unicode="&#x131;" horiz-adv-x="433" 
d="M108 0l145 1034h73l-146 -1034h-72z" />
    <glyph glyph-name="Jcircumflex" unicode="&#x134;" horiz-adv-x="717" 
d="M242 -20q-78 0 -132 24.5t-62 33.5l30 86q29 -15 65.5 -38.5t106.5 -23.5q87 0 129.5 55t60.5 191l161 1138h71l-164 -1166q-13 -92 -42.5 -159.5t-83.5 -104t-140 -36.5zM406 1567l246 190h58l190 -190h-112l-118 120l-160 -120h-104z" />
    <glyph glyph-name="jcircumflex" unicode="&#x135;" horiz-adv-x="419" 
d="M-60 -332q-82 0 -100 3t-17 15l8 52l116 2q71 2 107 39.5t49 130.5l158 1124h72l-160 -1134q-16 -120 -64 -176t-169 -56zM58 1155l246 190h58l190 -190h-112l-118 120l-160 -120h-104z" />
    <glyph glyph-name="uni0136" unicode="&#x136;" horiz-adv-x="1224" 
d="M147 0l204 1446h74l-116 -834l824 834h98l-560 -570l388 -876h-94l-364 814l-308 -318l-70 -496h-76zM428 -320l80 99h-41l17 121h116l-15 -103l-112 -117h-45z" />
    <glyph glyph-name="uni0137" unicode="&#x137;" horiz-adv-x="1022" 
d="M107 0l210 1486h71l-148 -1058l630 606h102l-394 -376l281 -658h-92l-253 592l-291 -276l-43 -316h-73zM306 -320l80 99h-41l17 121h116l-15 -103l-112 -117h-45z" />
    <glyph glyph-name="kgreenlandic" unicode="&#x138;" horiz-adv-x="1022" 
d="M107 0l147 1034h72l-86 -606l630 606h100l-392 -376l281 -658h-92l-253 592l-291 -276l-43 -316h-73z" />
    <glyph glyph-name="Lacute" unicode="&#x139;" horiz-adv-x="1093" 
d="M147 0l204 1446h78l-192 -1360h680l-12 -86h-758zM347 1567l228 291h113l-270 -291h-71z" />
    <glyph glyph-name="lacute" unicode="&#x13a;" horiz-adv-x="536" 
d="M283 -8q-47 0 -78 19t-47.5 53t-20 79.5t3.5 98.5l176 1244h73l-177 -1244q-13 -100 15 -142t67 -42h58l-7 -58q-19 -4 -36.5 -6t-26.5 -2zM307 1645l228 291h113l-270 -291h-71z" />
    <glyph glyph-name="uni013B" unicode="&#x13b;" horiz-adv-x="1093" 
d="M147 0l204 1446h78l-192 -1360h680l-12 -86h-758zM388 -320l80 99h-41l17 121h116l-15 -103l-112 -117h-45z" />
    <glyph glyph-name="uni013C" unicode="&#x13c;" horiz-adv-x="536" 
d="M283 -8q-47 0 -78 19t-47.5 53t-20 79.5t3.5 98.5l176 1244h73l-177 -1244q-13 -100 15 -142t67 -42h58l-7 -58q-19 -4 -36.5 -6t-26.5 -2zM55 -318l80 99h-41l17 121h116l-15 -103l-112 -117h-45z" />
    <glyph glyph-name="Lcaron" unicode="&#x13d;" horiz-adv-x="1093" 
d="M147 0l204 1446h78l-192 -1360h680l-12 -86h-758zM757 1106l88 166l-33 8l22 166h97l-23 -174l-90 -166h-61z" />
    <glyph glyph-name="lcaron" unicode="&#x13e;" horiz-adv-x="536" 
d="M283 -8q-47 0 -78 19t-47.5 53t-20 79.5t3.5 98.5l176 1244h73l-177 -1244q-13 -100 15 -142t67 -42h58l-7 -58q-19 -4 -36.5 -6t-26.5 -2zM451 1146l88 166l-33 8l22 166h97l-23 -174l-90 -166h-61z" />
    <glyph glyph-name="Ldot" unicode="&#x13f;" horiz-adv-x="1115" 
d="M147 0l204 1446h78l-192 -1360h680l-12 -86h-758zM779 698l22 154h146l-22 -154h-146z" />
    <glyph glyph-name="ldot" unicode="&#x140;" horiz-adv-x="573" 
d="M283 -8q-47 0 -78 19t-47.5 53t-20 79.5t3.5 98.5l176 1244h73l-177 -1244q-13 -100 15 -142t67 -42h58l-7 -58q-19 -4 -36.5 -6t-26.5 -2zM444 698l22 154h146l-22 -154h-146z" />
    <glyph glyph-name="Lslash" unicode="&#x141;" horiz-adv-x="1111" 
d="M87 634v76l574 146v-72zM165 0l204 1446h78l-192 -1360h680l-12 -86h-758z" />
    <glyph glyph-name="lslash" unicode="&#x142;" horiz-adv-x="622" 
d="M58 340v90l462 432v-86zM349 -8q-47 0 -78 19t-47.5 53t-20 79.5t3.5 98.5l176 1244h73l-177 -1244q-13 -100 15 -142t67 -42h58l-7 -58q-19 -4 -36.5 -6t-26.5 -2z" />
    <glyph glyph-name="Nacute" unicode="&#x143;" horiz-adv-x="1372" 
d="M147 0l204 1446h58l620 -1290l182 1290h72l-204 -1446h-62l-616 1286l-182 -1286h-72zM773 1567l228 291h113l-270 -291h-71z" />
    <glyph glyph-name="nacute" unicode="&#x144;" horiz-adv-x="1060" 
d="M108 0l145 1034h65l-19 -154q31 49 82 88.5t117.5 62.5t143.5 23q96 0 165.5 -41t101 -126t12.5 -217l-94 -670h-72l95 670q22 150 -37.5 229t-179.5 79q-85 0 -161 -28t-127.5 -85t-63.5 -145l-102 -720h-71zM589 1155l228 291h113l-270 -291h-71z" />
    <glyph glyph-name="uni0145" unicode="&#x145;" horiz-adv-x="1372" 
d="M147 0l204 1446h58l620 -1290l182 1290h72l-204 -1446h-62l-616 1286l-182 -1286h-72zM442 -320l80 99h-41l17 121h116l-15 -103l-112 -117h-45z" />
    <glyph glyph-name="uni0146" unicode="&#x146;" horiz-adv-x="1060" 
d="M108 0l145 1034h65l-19 -154q31 49 82 88.5t117.5 62.5t143.5 23q96 0 165.5 -41t101 -126t12.5 -217l-94 -670h-72l95 670q22 150 -37.5 229t-179.5 79q-85 0 -161 -28t-127.5 -85t-63.5 -145l-102 -720h-71zM344 -320l80 99h-41l17 121h116l-15 -103l-112 -117h-45z
" />
    <glyph glyph-name="Ncaron" unicode="&#x147;" horiz-adv-x="1372" 
d="M147 0l204 1446h58l620 -1290l182 1290h72l-204 -1446h-62l-616 1286l-182 -1286h-72zM806 1566l-194 190h106l126 -120l154 120h110l-242 -190h-60z" />
    <glyph glyph-name="ncaron" unicode="&#x148;" horiz-adv-x="1060" 
d="M108 0l145 1034h65l-19 -154q31 49 82 88.5t117.5 62.5t143.5 23q96 0 165.5 -41t101 -126t12.5 -217l-94 -670h-72l95 670q22 150 -37.5 229t-179.5 79q-85 0 -161 -28t-127.5 -85t-63.5 -145l-102 -720h-71zM622 1154l-194 190h106l126 -120l154 120h110l-242 -190h-60
z" />
    <glyph glyph-name="Eng" unicode="&#x14a;" horiz-adv-x="1372" 
d="M787 -480q-78 0 -131.5 24.5t-62.5 33.5l28 79q24 -15 67.5 -35t106.5 -20q87 0 130 55t62 191l24 165l-610 1273l-182 -1286h-72l204 1446h58l620 -1290l182 1290h72l-230 -1626q-13 -92 -42 -159.5t-83 -104t-141 -36.5z" />
    <glyph glyph-name="eng" unicode="&#x14b;" horiz-adv-x="1080" 
d="M578 -332q-70 0 -87 3t-16 15l8 48l101 2q72 2 109 41.5t51 132.5l113 814q17 114 -23 185t-168 71q-85 0 -180 -50t-194 -134l-112 -796h-73l147 1034h65l-21 -156q91 70 155.5 108t118.5 53t113 15q139 0 204 -80t46 -208l-120 -846q-10 -80 -39 -136.5t-78 -86
t-120 -29.5z" />
    <glyph glyph-name="Omacron" unicode="&#x14c;" horiz-adv-x="1329" 
d="M591 -20q-170 0 -279.5 84t-151 248t-7.5 404q34 244 123 411t222.5 253t302.5 86q168 0 276 -85t149 -251.5t7 -409.5q-34 -241 -121.5 -406t-220 -249.5t-300.5 -84.5zM605 62q148 0 260 72t184.5 218t103.5 368q31 223 -1 370.5t-123.5 220.5t-239.5 73
q-222 0 -364.5 -165.5t-189.5 -498.5q-31 -221 2 -367t126 -218.5t242 -72.5zM608 1677l10 74h452l-10 -74h-452z" />
    <glyph glyph-name="omacron" unicode="&#x14d;" horiz-adv-x="1044" 
d="M455 -20q-124 0 -210 58t-122.5 176.5t-12.5 299.5q21 162 81.5 283.5t161.5 189t242 67.5q123 0 207 -58.5t120 -178t12 -303.5q-21 -160 -81 -280t-159 -187t-239 -67zM465 54q100 0 181.5 50t137 152t75.5 258q18 139 -4.5 243.5t-89 162.5t-180.5 58
q-102 0 -184.5 -50t-138 -153t-76.5 -261q-18 -138 5 -241.5t91 -161t183 -57.5zM368 1265l10 74h452l-10 -74h-452z" />
    <glyph glyph-name="Obreve" unicode="&#x14e;" horiz-adv-x="1329" 
d="M591 -20q-170 0 -279.5 84t-151 248t-7.5 404q34 244 123 411t222.5 253t302.5 86q168 0 276 -85t149 -251.5t7 -409.5q-34 -241 -121.5 -406t-220 -249.5t-300.5 -84.5zM605 62q148 0 260 72t184.5 218t103.5 368q31 223 -1 370.5t-123.5 220.5t-239.5 73
q-222 0 -364.5 -165.5t-189.5 -498.5q-31 -221 2 -367t126 -218.5t242 -72.5zM813 1567q-71 0 -115.5 28t-66 69t-24.5 81h88q6 -14 18 -37.5t38 -42t74 -18.5q63 0 102 35t60 63h90q-14 -34 -48.5 -75.5t-88.5 -72t-127 -30.5z" />
    <glyph glyph-name="obreve" unicode="&#x14f;" horiz-adv-x="1044" 
d="M455 -20q-124 0 -210 58t-122.5 176.5t-12.5 299.5q21 162 81.5 283.5t161.5 189t242 67.5q123 0 207 -58.5t120 -178t12 -303.5q-21 -160 -81 -280t-159 -187t-239 -67zM465 54q100 0 181.5 50t137 152t75.5 258q18 139 -4.5 243.5t-89 162.5t-180.5 58
q-102 0 -184.5 -50t-138 -153t-76.5 -261q-18 -138 5 -241.5t91 -161t183 -57.5zM573 1155q-71 0 -115.5 28t-66 69t-24.5 81h88q6 -14 18 -37.5t38 -42t74 -18.5q63 0 102 35t60 63h90q-14 -34 -48.5 -75.5t-88.5 -72t-127 -30.5z" />
    <glyph glyph-name="Ohungarumlaut" unicode="&#x150;" horiz-adv-x="1329" 
d="M591 -20q-170 0 -279.5 84t-151 248t-7.5 404q34 244 123 411t222.5 253t302.5 86q168 0 276 -85t149 -251.5t7 -409.5q-34 -241 -121.5 -406t-220 -249.5t-300.5 -84.5zM605 62q148 0 260 72t184.5 218t103.5 368q31 223 -1 370.5t-123.5 220.5t-239.5 73
q-222 0 -364.5 -165.5t-189.5 -498.5q-31 -221 2 -367t126 -218.5t242 -72.5zM875 1567l172 291h109l-213 -291h-68zM685 1567l139 291h110l-181 -291h-68z" />
    <glyph glyph-name="ohungarumlaut" unicode="&#x151;" horiz-adv-x="1044" 
d="M455 -20q-124 0 -210 58t-122.5 176.5t-12.5 299.5q21 162 81.5 283.5t161.5 189t242 67.5q123 0 207 -58.5t120 -178t12 -303.5q-21 -160 -81 -280t-159 -187t-239 -67zM465 54q100 0 181.5 50t137 152t75.5 258q18 139 -4.5 243.5t-89 162.5t-180.5 58
q-102 0 -184.5 -50t-138 -153t-76.5 -261q-18 -138 5 -241.5t91 -161t183 -57.5zM635 1155l172 291h109l-213 -291h-68zM445 1155l139 291h110l-181 -291h-68z" />
    <glyph glyph-name="OE" unicode="&#x152;" horiz-adv-x="2074" 
d="M2039 1446l-12 -80h-692l-84 -594h644l-10 -82h-644l-86 -606l718 -2l-12 -82h-790l46 325q-86 -169 -220.5 -257t-305.5 -88q-170 0 -279.5 84t-151 248t-7.5 404q34 244 123 411t222.5 253t302.5 86q171 0 280.5 -88.5t147.5 -260.5l46 329h764zM605 62q148 0 260 72
t184.5 218t103.5 368q31 223 -1 370.5t-123.5 220.5t-239.5 73q-222 0 -364.5 -165.5t-189.5 -498.5q-31 -221 2 -367t126 -218.5t242 -72.5z" />
    <glyph glyph-name="oe" unicode="&#x153;" horiz-adv-x="1794" 
d="M1355 1054q124 0 202.5 -58.5t109 -170t10.5 -271.5l-7 -56h-729q-16 -117 6 -217.5t90 -162.5t189 -62q114 0 203 59t120 161h78q-33 -100 -97.5 -166t-146.5 -98t-168 -32q-136 0 -227.5 72.5t-120.5 210.5q-58 -132 -161 -207.5t-251 -75.5q-124 0 -210 58
t-122.5 176.5t-12.5 299.5q21 162 81.5 283.5t161.5 189t242 67.5q136 0 225 -72t114 -221q64 140 171.5 216.5t249.5 76.5zM465 54q100 0 181.5 50t137 152t75.5 258q18 139 -4.5 243.5t-89 162.5t-180.5 58q-102 0 -184.5 -50t-138 -153t-76.5 -261q-18 -138 5 -241.5
t91 -161t183 -57.5zM953 574h650q17 115 -4.5 206.5t-84.5 144.5t-171 53q-118 0 -200 -60.5t-129.5 -153.5t-60.5 -190z" />
    <glyph glyph-name="Racute" unicode="&#x154;" horiz-adv-x="1244" 
d="M147 0l204 1446h468q129 0 215 -40t123.5 -119.5t21.5 -198.5q-17 -121 -72 -199t-127 -121.5t-139 -61.5l176 -706h-82l-172 688h-446l-98 -688h-72zM327 770h336q128 0 220 30.5t146.5 97.5t69.5 176q21 155 -53.5 223.5t-238.5 68.5h-396zM691 1567l228 291h113
l-270 -291h-71z" />
    <glyph glyph-name="racute" unicode="&#x155;" horiz-adv-x="682" 
d="M107 0l146 1034h66l-21 -154q35 70 84.5 107.5t103.5 52t100 14.5q29 0 57 -4.5t44 -15.5l-11 -80q-18 10 -50 14t-52 4q-45 0 -108.5 -20t-116.5 -74.5t-68 -157.5l-101 -720h-73zM426 1155l228 291h113l-270 -291h-71z" />
    <glyph glyph-name="uni0156" unicode="&#x156;" horiz-adv-x="1244" 
d="M147 0l204 1446h468q129 0 215 -40t123.5 -119.5t21.5 -198.5q-17 -121 -72 -199t-127 -121.5t-139 -61.5l176 -706h-82l-172 688h-446l-98 -688h-72zM327 770h336q128 0 220 30.5t146.5 97.5t69.5 176q21 155 -53.5 223.5t-238.5 68.5h-396zM418 -320l80 99h-41l17 121
h116l-15 -103l-112 -117h-45z" />
    <glyph glyph-name="uni0157" unicode="&#x157;" horiz-adv-x="705" 
d="M107 0l146 1034h66l-21 -154q35 70 84.5 107.5t103.5 52t100 14.5q29 0 57 -4.5t44 -15.5l-11 -80q-18 10 -50 14t-52 4q-45 0 -108.5 -20t-116.5 -74.5t-68 -157.5l-101 -720h-73zM6 -320l80 99h-41l17 121h116l-15 -103l-112 -117h-45z" />
    <glyph glyph-name="Rcaron" unicode="&#x158;" horiz-adv-x="1244" 
d="M147 0l204 1446h468q129 0 215 -40t123.5 -119.5t21.5 -198.5q-17 -121 -72 -199t-127 -121.5t-139 -61.5l176 -706h-82l-172 688h-446l-98 -688h-72zM327 770h336q128 0 220 30.5t146.5 97.5t69.5 176q21 155 -53.5 223.5t-238.5 68.5h-396zM724 1566l-194 190h106
l126 -120l154 120h110l-242 -190h-60z" />
    <glyph glyph-name="rcaron" unicode="&#x159;" horiz-adv-x="705" 
d="M107 0l146 1034h66l-21 -154q35 70 84.5 107.5t103.5 52t100 14.5q29 0 57 -4.5t44 -15.5l-11 -80q-18 10 -50 14t-52 4q-45 0 -108.5 -20t-116.5 -74.5t-68 -157.5l-101 -720h-73zM388 1154l-194 190h106l126 -120l154 120h110l-242 -190h-60z" />
    <glyph glyph-name="Sacute" unicode="&#x15a;" horiz-adv-x="1241" 
d="M554 -20q-90 0 -168.5 24.5t-138.5 72t-94.5 117t-37.5 160.5h81q8 -98 59 -164t132 -99t177 -33q115 0 207 37.5t150 103.5t69 151q10 77 -7 137t-64 102t-128 65l-282 80q-140 40 -208.5 120.5t-51.5 209.5q15 114 81 204.5t172 143t238 52.5q149 0 241 -59.5
t130 -151.5t25 -189h-82q5 120 -40.5 189.5t-122 99t-165.5 29.5q-78 0 -165.5 -33t-153.5 -103t-81 -180q-12 -93 40.5 -152t200.5 -103l270 -80q75 -22 123.5 -60.5t75 -88.5t33.5 -108t-1 -120q-13 -102 -75.5 -187t-172.5 -136t-266 -51zM697 1567l228 291h113
l-270 -291h-71z" />
    <glyph glyph-name="sacute" unicode="&#x15b;" horiz-adv-x="917" 
d="M404 -20q-100 0 -174.5 32t-114 98t-36.5 166h77q3 -66 32 -115.5t85.5 -77t141.5 -27.5q116 0 194 51.5t93 158.5q10 72 -18 115.5t-91 63.5l-219 68q-100 32 -152.5 90t-38.5 161q12 87 56.5 152t122.5 101.5t189 36.5q135 0 211.5 -67t63.5 -207h-77q3 89 -48 143.5
t-160 54.5q-113 0 -190 -52t-92 -162q-10 -70 29.5 -109.5t116.5 -63.5l218 -68q50 -16 83 -42t51 -59t22.5 -72t-1.5 -80q-12 -87 -57 -152t-124 -101.5t-193 -36.5zM504 1155l228 291h113l-270 -291h-71z" />
    <glyph glyph-name="Scircumflex" unicode="&#x15c;" horiz-adv-x="1241" 
d="M554 -20q-90 0 -168.5 24.5t-138.5 72t-94.5 117t-37.5 160.5h81q8 -98 59 -164t132 -99t177 -33q115 0 207 37.5t150 103.5t69 151q10 77 -7 137t-64 102t-128 65l-282 80q-140 40 -208.5 120.5t-51.5 209.5q15 114 81 204.5t172 143t238 52.5q149 0 241 -59.5
t130 -151.5t25 -189h-82q5 120 -40.5 189.5t-122 99t-165.5 29.5q-78 0 -165.5 -33t-153.5 -103t-81 -180q-12 -93 40.5 -152t200.5 -103l270 -80q75 -22 123.5 -60.5t75 -88.5t33.5 -108t-1 -120q-13 -102 -75.5 -187t-172.5 -136t-266 -51zM511 1567l246 190h58l190 -190
h-112l-118 120l-160 -120h-104z" />
    <glyph glyph-name="scircumflex" unicode="&#x15d;" horiz-adv-x="917" 
d="M404 -20q-100 0 -174.5 32t-114 98t-36.5 166h77q3 -66 32 -115.5t85.5 -77t141.5 -27.5q116 0 194 51.5t93 158.5q10 72 -18 115.5t-91 63.5l-219 68q-100 32 -152.5 90t-38.5 161q12 87 56.5 152t122.5 101.5t189 36.5q135 0 211.5 -67t63.5 -207h-77q3 89 -48 143.5
t-160 54.5q-113 0 -190 -52t-92 -162q-10 -70 29.5 -109.5t116.5 -63.5l218 -68q50 -16 83 -42t51 -59t22.5 -72t-1.5 -80q-12 -87 -57 -152t-124 -101.5t-193 -36.5zM318 1155l246 190h58l190 -190h-112l-118 120l-160 -120h-104z" />
    <glyph glyph-name="Scedilla" unicode="&#x15e;" horiz-adv-x="1241" 
d="M424 -398q-42 0 -74 12t-58 34l28 56q17 -19 39.5 -31.5t64.5 -12.5q57 0 84.5 22t33.5 62q8 47 -23.5 69t-100.5 25q-7 0 -8 2.5t2 5.5l88 164h62l-64 -124q55 -5 83 -26t36.5 -51t4.5 -61q-7 -49 -36 -81.5t-71.5 -48.5t-90.5 -16zM554 -20q-90 0 -168.5 24.5
t-138.5 72t-94.5 117t-37.5 160.5h81q8 -98 59 -164t132 -99t177 -33q115 0 207 37.5t150 103.5t69 151q10 77 -7 137t-64 102t-128 65l-282 80q-140 40 -208.5 120.5t-51.5 209.5q15 114 81 204.5t172 143t238 52.5q149 0 241 -59.5t130 -151.5t25 -189h-82
q5 120 -40.5 189.5t-122 99t-165.5 29.5q-78 0 -165.5 -33t-153.5 -103t-81 -180q-12 -93 40.5 -152t200.5 -103l270 -80q75 -22 123.5 -60.5t75 -88.5t33.5 -108t-1 -120q-13 -102 -75.5 -187t-172.5 -136t-266 -51z" />
    <glyph glyph-name="scedilla" unicode="&#x15f;" horiz-adv-x="917" 
d="M307 -398q-42 0 -74 12t-58 34l28 56q17 -19 39.5 -31.5t64.5 -12.5q57 0 84.5 22t33.5 62q8 47 -23.5 69t-100.5 25q-7 0 -8 2.5t2 5.5l88 164h62l-64 -124q55 -5 83 -26t36.5 -51t4.5 -61q-7 -49 -36 -81.5t-71.5 -48.5t-90.5 -16zM404 -20q-100 0 -174.5 32t-114 98
t-36.5 166h77q3 -66 32 -115.5t85.5 -77t141.5 -27.5q116 0 194 51.5t93 158.5q10 72 -18 115.5t-91 63.5l-219 68q-100 32 -152.5 90t-38.5 161q12 87 56.5 152t122.5 101.5t189 36.5q135 0 211.5 -67t63.5 -207h-77q3 89 -48 143.5t-160 54.5q-113 0 -190 -52t-92 -162
q-10 -70 29.5 -109.5t116.5 -63.5l218 -68q50 -16 83 -42t51 -59t22.5 -72t-1.5 -80q-12 -87 -57 -152t-124 -101.5t-193 -36.5z" />
    <glyph glyph-name="Scaron" unicode="&#x160;" horiz-adv-x="1241" 
d="M554 -20q-90 0 -168.5 24.5t-138.5 72t-94.5 117t-37.5 160.5h81q8 -98 59 -164t132 -99t177 -33q115 0 207 37.5t150 103.5t69 151q10 77 -7 137t-64 102t-128 65l-282 80q-140 40 -208.5 120.5t-51.5 209.5q15 114 81 204.5t172 143t238 52.5q149 0 241 -59.5
t130 -151.5t25 -189h-82q5 120 -40.5 189.5t-122 99t-165.5 29.5q-78 0 -165.5 -33t-153.5 -103t-81 -180q-12 -93 40.5 -152t200.5 -103l270 -80q75 -22 123.5 -60.5t75 -88.5t33.5 -108t-1 -120q-13 -102 -75.5 -187t-172.5 -136t-266 -51zM730 1566l-194 190h106
l126 -120l154 120h110l-242 -190h-60z" />
    <glyph glyph-name="scaron" unicode="&#x161;" horiz-adv-x="917" 
d="M404 -20q-100 0 -174.5 32t-114 98t-36.5 166h77q3 -66 32 -115.5t85.5 -77t141.5 -27.5q116 0 194 51.5t93 158.5q10 72 -18 115.5t-91 63.5l-219 68q-100 32 -152.5 90t-38.5 161q12 87 56.5 152t122.5 101.5t189 36.5q135 0 211.5 -67t63.5 -207h-77q3 89 -48 143.5
t-160 54.5q-113 0 -190 -52t-92 -162q-10 -70 29.5 -109.5t116.5 -63.5l218 -68q50 -16 83 -42t51 -59t22.5 -72t-1.5 -80q-12 -87 -57 -152t-124 -101.5t-193 -36.5zM537 1154l-194 190h106l126 -120l154 120h110l-242 -190h-60z" />
    <glyph glyph-name="uni0162" unicode="&#x162;" horiz-adv-x="1066" 
d="M380 -394q-42 0 -74 12t-58 34l28 56q17 -19 39.5 -31.5t64.5 -12.5q57 0 84.5 22t33.5 62q8 47 -23.5 69t-100.5 25q-7 0 -8 2.5t2 5.5l88 164h62l-64 -124q55 -5 83 -26t36.5 -51t4.5 -61q-7 -49 -36 -81.5t-71.5 -48.5t-90.5 -16zM442 0l192 1366h-456l10 80h948
l-9 -80h-421l-192 -1366h-72z" />
    <glyph glyph-name="uni0163" unicode="&#x163;" horiz-adv-x="689" 
d="M248 -398q-42 0 -74 12t-58 34l28 56q17 -19 39.5 -31.5t64.5 -12.5q57 0 84.5 22t33.5 62q8 47 -23.5 69t-100.5 25q-7 0 -8 2.5t2 5.5l88 164h62l-64 -124q55 -5 83 -26t36.5 -51t4.5 -61q-7 -49 -36 -81.5t-71.5 -48.5t-90.5 -16zM396 0q-72 0 -109.5 23.5t-47 74.5
t1.5 134l103 734h-156l11 68h153l61 290h55l-40 -290h220l-10 -68h-220l-102 -724q-15 -108 14 -136t112 -28h80l-10 -68q-17 -6 -49 -8t-67 -2z" />
    <glyph glyph-name="Tcaron" unicode="&#x164;" horiz-adv-x="1066" 
d="M442 0l192 1366h-456l10 80h948l-9 -80h-421l-192 -1366h-72zM673 1566l-194 190h106l126 -120l154 120h110l-242 -190h-60z" />
    <glyph glyph-name="tcaron" unicode="&#x165;" horiz-adv-x="689" 
d="M396 0q-72 0 -109.5 23.5t-47 74.5t1.5 134l103 734h-156l11 68h153l61 290h55l-40 -290h220l-10 -68h-220l-102 -724q-15 -108 14 -136t112 -28h80l-10 -68q-17 -6 -49 -8t-67 -2zM561 1146l88 166l-33 8l22 166h97l-23 -174l-90 -166h-61z" />
    <glyph glyph-name="Tbar" unicode="&#x166;" horiz-adv-x="1066" 
d="M204 702l10 82h714l-10 -82h-714zM442 0l192 1366h-456l10 80h948l-9 -80h-421l-192 -1366h-72z" />
    <glyph glyph-name="tbar" unicode="&#x167;" horiz-adv-x="644" 
d="M139 546l10 68h446l-10 -68h-446zM407 0q-72 0 -109.5 23.5t-47 74.5t1.5 134l103 734h-156l11 68h153l61 290h55l-40 -290h220l-10 -68h-220l-102 -724q-15 -108 14 -136t112 -28h80l-10 -68q-17 -6 -49 -8t-67 -2z" />
    <glyph glyph-name="Utilde" unicode="&#x168;" horiz-adv-x="1277" 
d="M585 -20q-151 0 -241 53.5t-121.5 164t-7.5 280.5l136 968h78l-140 -1002q-18 -126 9 -212.5t101 -131t196 -44.5q185 0 291 98t133 290l140 1002h71l-139 -998q-22 -157 -85 -261t-168 -155.5t-253 -51.5zM610 1661l-14 60q32 27 63.5 44.5t74.5 17.5q39 0 70.5 -12.5
t63.5 -25t72 -12.5q35 0 58.5 11.5t51.5 30.5l18 -68q-21 -13 -53.5 -29.5t-86.5 -16.5q-46 0 -75.5 12t-56.5 24t-64 12q-45 0 -72 -17t-50 -31z" />
    <glyph glyph-name="utilde" unicode="&#x169;" horiz-adv-x="1074" 
d="M456 -20q-83 1 -148 24t-107.5 68t-59.5 113.5t-4 160.5l96 688h73l-97 -688q-19 -130 42 -210t211 -80q133 0 224.5 75t113.5 231l95 672h72l-146 -1034h-66l21 190q-26 -64 -71 -111.5t-107.5 -73.5t-141.5 -25zM418 1249l-14 60q32 27 63.5 44.5t74.5 17.5
q39 0 70.5 -12.5t63.5 -25t72 -12.5q35 0 58.5 11.5t51.5 30.5l18 -68q-21 -13 -53.5 -29.5t-86.5 -16.5q-46 0 -75.5 12t-56.5 24t-64 12q-45 0 -72 -17t-50 -31z" />
    <glyph glyph-name="Umacron" unicode="&#x16a;" horiz-adv-x="1277" 
d="M585 -20q-151 0 -241 53.5t-121.5 164t-7.5 280.5l136 968h78l-140 -1002q-18 -126 9 -212.5t101 -131t196 -44.5q185 0 291 98t133 290l140 1002h71l-139 -998q-22 -157 -85 -261t-168 -155.5t-253 -51.5zM600 1677l10 74h452l-10 -74h-452z" />
    <glyph glyph-name="umacron" unicode="&#x16b;" horiz-adv-x="1074" 
d="M456 -20q-83 1 -148 24t-107.5 68t-59.5 113.5t-4 160.5l96 688h73l-97 -688q-19 -130 42 -210t211 -80q133 0 224.5 75t113.5 231l95 672h72l-146 -1034h-66l21 190q-26 -64 -71 -111.5t-107.5 -73.5t-141.5 -25zM408 1265l10 74h452l-10 -74h-452z" />
    <glyph glyph-name="Ubreve" unicode="&#x16c;" horiz-adv-x="1277" 
d="M585 -20q-151 0 -241 53.5t-121.5 164t-7.5 280.5l136 968h78l-140 -1002q-18 -126 9 -212.5t101 -131t196 -44.5q185 0 291 98t133 290l140 1002h71l-139 -998q-22 -157 -85 -261t-168 -155.5t-253 -51.5zM805 1567q-71 0 -115.5 28t-66 69t-24.5 81h88q6 -14 18 -37.5
t38 -42t74 -18.5q63 0 102 35t60 63h90q-14 -34 -48.5 -75.5t-88.5 -72t-127 -30.5z" />
    <glyph glyph-name="ubreve" unicode="&#x16d;" horiz-adv-x="1074" 
d="M456 -20q-83 1 -148 24t-107.5 68t-59.5 113.5t-4 160.5l96 688h73l-97 -688q-19 -130 42 -210t211 -80q133 0 224.5 75t113.5 231l95 672h72l-146 -1034h-66l21 190q-26 -64 -71 -111.5t-107.5 -73.5t-141.5 -25zM613 1155q-71 0 -115.5 28t-66 69t-24.5 81h88
q6 -14 18 -37.5t38 -42t74 -18.5q63 0 102 35t60 63h90q-14 -34 -48.5 -75.5t-88.5 -72t-127 -30.5z" />
    <glyph glyph-name="Uring" unicode="&#x16e;" horiz-adv-x="1277" 
d="M585 -20q-151 0 -241 53.5t-121.5 164t-7.5 280.5l136 968h78l-140 -1002q-18 -126 9 -212.5t101 -131t196 -44.5q185 0 291 98t133 290l140 1002h71l-139 -998q-22 -157 -85 -261t-168 -155.5t-253 -51.5zM811 1584q-73 0 -117.5 57t-32.5 141q7 52 37.5 94.5t75 68
t93.5 25.5q75 0 119.5 -55.5t32.5 -136.5q-7 -55 -37 -99t-75 -69.5t-96 -25.5zM821 1662q44 0 79.5 35t42.5 81q6 51 -19.5 82.5t-70.5 31.5q-40 0 -76 -31.5t-44 -82.5q-7 -46 19.5 -81t68.5 -35z" />
    <glyph glyph-name="uring" unicode="&#x16f;" horiz-adv-x="1074" 
d="M456 -20q-83 1 -148 24t-107.5 68t-59.5 113.5t-4 160.5l96 688h73l-97 -688q-19 -130 42 -210t211 -80q133 0 224.5 75t113.5 231l95 672h72l-146 -1034h-66l21 190q-26 -64 -71 -111.5t-107.5 -73.5t-141.5 -25zM619 1172q-73 0 -117.5 57t-32.5 141q7 52 37.5 94.5
t75 68t93.5 25.5q75 0 119.5 -55.5t32.5 -136.5q-7 -55 -37 -99t-75 -69.5t-96 -25.5zM629 1250q44 0 79.5 35t42.5 81q6 51 -19.5 82.5t-70.5 31.5q-40 0 -76 -31.5t-44 -82.5q-7 -46 19.5 -81t68.5 -35z" />
    <glyph glyph-name="Uhungarumlaut" unicode="&#x170;" horiz-adv-x="1277" 
d="M585 -20q-151 0 -241 53.5t-121.5 164t-7.5 280.5l136 968h78l-140 -1002q-18 -126 9 -212.5t101 -131t196 -44.5q185 0 291 98t133 290l140 1002h71l-139 -998q-22 -157 -85 -261t-168 -155.5t-253 -51.5zM867 1567l172 291h109l-213 -291h-68zM677 1567l139 291h110
l-181 -291h-68z" />
    <glyph glyph-name="uhungarumlaut" unicode="&#x171;" horiz-adv-x="1022" 
d="M456 -20q-83 1 -148 24t-107.5 68t-59.5 113.5t-4 160.5l96 688h73l-97 -688q-19 -130 42 -210t211 -80q133 0 224.5 75t113.5 231l95 672h72l-146 -1034h-66l21 190q-26 -64 -71 -111.5t-107.5 -73.5t-141.5 -25zM673 1155l172 291h109l-213 -291h-68zM483 1155l139 291
h110l-181 -291h-68z" />
    <glyph glyph-name="Uogonek" unicode="&#x172;" horiz-adv-x="1277" 
d="M584 -334q-86 0 -119 43t-24 109q9 65 59 113.5t167 84.5l60 -18q-96 -45 -147.5 -86t-60.5 -98q-4 -40 16.5 -61t75.5 -21q47 0 85 11.5t51 18.5l-10 -62q-22 -12 -64 -23t-89 -11zM585 -20q-151 0 -241 53.5t-121.5 164t-7.5 280.5l136 968h78l-140 -1002
q-18 -126 9 -212.5t101 -131t196 -44.5q185 0 291 98t133 290l140 1002h71l-139 -998q-22 -157 -85 -261t-168 -155.5t-253 -51.5z" />
    <glyph glyph-name="uogonek" unicode="&#x173;" horiz-adv-x="1074" 
d="M456 -20q-83 1 -148 24t-107.5 68t-59.5 113.5t-4 160.5l96 688h73l-97 -688q-19 -130 42 -210t211 -80q133 0 224.5 75t113.5 231l95 672h72l-146 -1034h-66l21 190q-26 -64 -71 -111.5t-107.5 -73.5t-141.5 -25zM680 -330q-86 0 -119 43t-24 109q9 65 59 113.5
t167 84.5l60 -18q-96 -45 -147.5 -86t-60.5 -98q-4 -40 16.5 -61t75.5 -21q47 0 85 11.5t51 18.5l-10 -62q-22 -12 -64 -23t-89 -11z" />
    <glyph glyph-name="Wcircumflex" unicode="&#x174;" horiz-adv-x="1742" 
d="M359 0l-170 1446h82l151 -1348l542 1348h71l160 -1348l542 1348h78l-586 -1446h-99l-152 1296l-523 -1296h-96zM772 1567l246 190h58l190 -190h-112l-118 120l-160 -120h-104z" />
    <glyph glyph-name="wcircumflex" unicode="&#x175;" horiz-adv-x="1430" 
d="M282 0l-134 1034h78l120 -948h22l388 948h66l136 -944h22l374 944h74l-408 -1034h-120l-130 900l-362 -900h-126zM566 1155l246 190h58l190 -190h-112l-118 120l-160 -120h-104z" />
    <glyph glyph-name="Ycircumflex" unicode="&#x176;" horiz-adv-x="1012" 
d="M402 0l86 624l-328 822h80l296 -744l498 744h80l-553 -824l-88 -622h-71zM408 1571l246 190h58l190 -190h-112l-118 120l-160 -120h-104z" />
    <glyph glyph-name="ycircumflex" unicode="&#x177;" horiz-adv-x="944" 
d="M93 -330q-69 0 -90.5 8l-21.5 8l8 54h102q59 0 99 17t66.5 46t44.5 65l68 138l-228 1028h78l204 -922l456 922h70l-582 -1184q-33 -65 -75 -104.5t-92 -57.5t-107 -18zM321 1155l246 190h58l190 -190h-112l-118 120l-160 -120h-104z" />
    <glyph glyph-name="Ydieresis" unicode="&#x178;" horiz-adv-x="1012" 
d="M402 0l86 624l-328 822h80l296 -744l498 744h80l-553 -824l-88 -622h-71zM752 1742l16 120h88l-16 -120h-88zM520 1742l16 120h88l-16 -120h-88z" />
    <glyph glyph-name="Zacute" unicode="&#x179;" horiz-adv-x="1134" 
d="M74 0l10 62l964 1306h-764l10 78h860l-8 -60l-970 -1308h786l-12 -78h-876zM680 1567l228 291h113l-270 -291h-71z" />
    <glyph glyph-name="zacute" unicode="&#x17a;" horiz-adv-x="876" 
d="M19 0l8 68l735 898h-565l10 68h645l-9 -68l-733 -898h613l-10 -68h-694zM495 1155l228 291h113l-270 -291h-71z" />
    <glyph glyph-name="Zdotaccent" unicode="&#x17b;" horiz-adv-x="1134" 
d="M74 0l10 62l964 1306h-764l10 78h860l-8 -60l-970 -1308h786l-12 -78h-876zM722 1738l16 120h88l-16 -120h-88z" />
    <glyph glyph-name="zdotaccent" unicode="&#x17c;" horiz-adv-x="876" 
d="M19 0l8 68l735 898h-565l10 68h645l-9 -68l-733 -898h613l-10 -68h-694zM537 1326l16 120h88l-16 -120h-88z" />
    <glyph glyph-name="Zcaron" unicode="&#x17d;" horiz-adv-x="1134" 
d="M74 0l10 62l964 1306h-764l10 78h860l-8 -60l-970 -1308h786l-12 -78h-876zM713 1566l-194 190h106l126 -120l154 120h110l-242 -190h-60z" />
    <glyph glyph-name="zcaron" unicode="&#x17e;" horiz-adv-x="876" 
d="M19 0l8 68l735 898h-565l10 68h645l-9 -68l-733 -898h613l-10 -68h-694zM528 1154l-194 190h106l126 -120l154 120h110l-242 -190h-60z" />
    <glyph glyph-name="uni018F" unicode="&#x18f;" horiz-adv-x="1336" 
d="M597 -20q-169 0 -279 85.5t-151.5 255t-6.5 421.5h1002q43 303 -49.5 471.5t-318.5 168.5q-113 0 -204 -38.5t-157.5 -100.5t-106 -133.5t-48.5 -137.5h-89q11 80 61 166t132 160.5t189.5 121t234.5 46.5q169 0 277 -89.5t149 -256.5t8 -400q-33 -240 -121 -405
t-220.5 -250t-301.5 -85zM609 64q151 0 262.5 78.5t182 213.5t96.5 304h-915q-23 -170 9.5 -305t123.5 -213t241 -78z" />
    <glyph glyph-name="florin" unicode="&#x192;" horiz-adv-x="712" 
d="M-339 -332l18 66l104 2q72 2 114.5 41.5t69.5 132.5l318 1056h-152l20 68h154l50 172q38 120 108 180t170 60h138l-20 -68h-146q-58 0 -104.5 -44.5t-69.5 -119.5l-56 -180h264l-20 -68h-264l-314 -1046q-36 -120 -104 -186t-176 -66h-102z" />
    <glyph glyph-name="Ohorn" unicode="&#x1a0;" horiz-adv-x="1419" 
d="M591 -20q-170 0 -279.5 84t-151 248t-7.5 404q34 244 123 411t222.5 253t302.5 86q123 0 214 -46t148 -135q50 0 83 16t54 56.5t33 112.5h87q-11 -84 -39.5 -140.5t-73.5 -86.5t-107 -33q37 -91 46 -214t-13 -276q-34 -241 -121.5 -406t-220 -249.5t-300.5 -84.5zM605 62
q148 0 260 72t184.5 218t103.5 368q31 223 -1 370.5t-123.5 220.5t-239.5 73q-222 0 -364.5 -165.5t-189.5 -498.5q-31 -221 2 -367t126 -218.5t242 -72.5z" />
    <glyph glyph-name="ohorn" unicode="&#x1a1;" horiz-adv-x="1079" 
d="M455 -20q-124 0 -210 58t-122.5 176.5t-12.5 299.5q21 162 81.5 283.5t161.5 189t242 67.5q89 0 159 -31t115 -94q73 0 111.5 39t55.5 146h87q-17 -124 -70.5 -189t-143.5 -71q25 -64 32 -148.5t-7 -191.5q-21 -160 -81 -280t-159 -187t-239 -67zM465 54q100 0 181.5 50
t137 152t75.5 258q18 139 -4.5 243.5t-89 162.5t-180.5 58q-102 0 -184.5 -50t-138 -153t-76.5 -261q-18 -138 5 -241.5t91 -161t183 -57.5z" />
    <glyph glyph-name="Uhorn" unicode="&#x1af;" horiz-adv-x="1424" 
d="M585 -20q-151 0 -241 53.5t-121.5 164t-7.5 280.5l136 968h78l-140 -1002q-18 -126 9 -212.5t101 -131t196 -44.5q185 0 291 98t133 290l140 1002h71l-22 -161q42 3 70.5 21t47 57.5t29.5 105.5h87q-12 -89 -43.5 -148t-81.5 -86.5t-120 -25.5l-106 -761
q-22 -157 -85 -261t-168 -155.5t-253 -51.5z" />
    <glyph glyph-name="uhorn" unicode="&#x1b0;" horiz-adv-x="1110" 
d="M457 -20q-83 1 -148 24t-108 68t-59.5 113.5t-3.5 160.5l96 688h73l-97 -688q-19 -130 42 -210t211 -80q133 0 224.5 75t113.5 231l95 672h72l-15 -105q44 2 74.5 20t49.5 57.5t30 107.5h87q-12 -90 -44 -149.5t-83.5 -87t-123.5 -23.5l-121 -854h-66l21 190
q-26 -64 -71 -111.5t-107.5 -73.5t-141.5 -25z" />
    <glyph glyph-name="uni01D4" unicode="&#x1d4;" horiz-adv-x="1074" 
d="M456 -20q-83 1 -148 24t-107.5 68t-59.5 113.5t-4 160.5l96 688h73l-97 -688q-19 -130 42 -210t211 -80q133 0 224.5 75t113.5 231l95 672h72l-146 -1034h-66l21 190q-26 -64 -71 -111.5t-107.5 -73.5t-141.5 -25zM590 1154l-194 190h106l126 -120l154 120h110l-242 -190
h-60z" />
    <glyph glyph-name="uni01EA" unicode="&#x1ea;" horiz-adv-x="1329" 
d="M591 -334q-86 0 -119 43t-24 109q9 65 59 113.5t167 84.5l60 -18q-96 -45 -147.5 -86t-60.5 -98q-4 -40 16.5 -61t75.5 -21q47 0 85 11.5t51 18.5l-10 -62q-22 -12 -64 -23t-89 -11zM591 -20q-170 0 -279.5 84t-151 248t-7.5 404q34 244 123 411t222.5 253t302.5 86
q168 0 276 -85t149 -251.5t7 -409.5q-34 -241 -121.5 -406t-220 -249.5t-300.5 -84.5zM605 62q148 0 260 72t184.5 218t103.5 368q31 223 -1 370.5t-123.5 220.5t-239.5 73q-222 0 -364.5 -165.5t-189.5 -498.5q-31 -221 2 -367t126 -218.5t242 -72.5z" />
    <glyph glyph-name="uni01EB" unicode="&#x1eb;" horiz-adv-x="1044" 
d="M396 -332q-86 0 -119 43t-24 109q9 65 59 113.5t167 84.5l60 -18q-96 -45 -147.5 -86t-60.5 -98q-4 -40 16.5 -61t75.5 -21q47 0 85 11.5t51 18.5l-10 -62q-22 -12 -64 -23t-89 -11zM455 -20q-124 0 -210 58t-122.5 176.5t-12.5 299.5q21 162 81.5 283.5t161.5 189
t242 67.5q123 0 207 -58.5t120 -178t12 -303.5q-21 -160 -81 -280t-159 -187t-239 -67zM465 54q100 0 181.5 50t137 152t75.5 258q18 139 -4.5 243.5t-89 162.5t-180.5 58q-102 0 -184.5 -50t-138 -153t-76.5 -261q-18 -138 5 -241.5t91 -161t183 -57.5z" />
    <glyph glyph-name="Aringacute" unicode="&#x1fa;" horiz-adv-x="1304" 
d="M963 1909l-70 -133q52 -19 79.5 -68t18.5 -114q-12 -85 -71.5 -141t-136.5 -56q-76 0 -118 57.5t-31 143.5q9 73 63.5 126.5t123.5 59.5l46 125h96zM913 1591q8 51 -18 83.5t-70 32.5q-42 0 -78.5 -32.5t-43.5 -83.5q-6 -45 21 -80.5t69 -35.5q44 0 78.5 35.5t41.5 80.5z
M42 0l690 1446h102l282 -1446h-79l-88 456h-610l-220 -456h-77zM377 542h557l-160 820z" />
    <glyph glyph-name="aringacute" unicode="&#x1fb;" horiz-adv-x="1016" 
d="M765 1497l-70 -133q52 -19 79.5 -68t18.5 -114q-12 -85 -71.5 -141t-136.5 -56q-76 0 -118 57.5t-31 143.5q9 73 63.5 126.5t123.5 59.5l46 125h96zM715 1179q8 51 -18 83.5t-70 32.5q-42 0 -78.5 -32.5t-43.5 -83.5q-6 -45 21 -80.5t69 -35.5q44 0 78.5 35.5t41.5 80.5z
M352 -20q-94 0 -158 34.5t-92 98t-17 151.5q24 174 139 253.5t353 88.5l220 8l15 100q17 125 -50 194.5t-189 69.5q-103 0 -187 -56.5t-114 -163.5h-78q15 73 65.5 141t133.5 111.5t194 43.5q101 0 173 -41t105 -116.5t18 -180.5l-100 -716h-66l24 200q-81 -129 -183 -174.5
t-206 -45.5zM373 54q59 0 123 23.5t120.5 64t95 90.5t45.5 102l28 202l-183 -4q-152 -3 -244 -31t-137.5 -84.5t-59.5 -146.5q-13 -102 45 -159t167 -57z" />
    <glyph glyph-name="AEacute" unicode="&#x1fc;" horiz-adv-x="1688" 
d="M-73 0l962 1446h762l-10 -78h-638l-84 -598h600l-10 -78h-602l-86 -614h664l-10 -78h-747l67 464h-482l-310 -464h-76zM359 542h446l116 828zM1221 1567l228 291h113l-270 -291h-71z" />
    <glyph glyph-name="aeacute" unicode="&#x1fd;" horiz-adv-x="1723" 
d="M352 -20q-94 0 -158 34.5t-92.5 98t-16.5 151.5q25 174 140 254t354 88l223 8l14 100q17 125 -49 194.5t-188 69.5q-105 0 -186.5 -56.5t-111.5 -163.5h-78q15 73 64.5 141t131.5 111.5t194 43.5q127 0 206 -63.5t91 -176.5q65 116 165.5 178t228.5 62q124 0 203.5 -59
t110.5 -170.5t8 -270.5l-7 -56h-729q-16 -117 5.5 -217.5t90 -162.5t189.5 -62q114 0 203 59t120 161h78q-33 -100 -97.5 -166t-146.5 -98t-168 -32q-139 0 -231 75t-119 216q-26 -88 -97 -153.5t-162.5 -101.5t-182.5 -36zM375 54q107 0 192 53t138.5 129.5t63.5 146.5
l22 153l-187 -4q-153 -3 -245.5 -31t-138 -84.5t-58.5 -146.5q-14 -102 44.5 -159t168.5 -57zM882 574h650q17 115 -4.5 206.5t-84.5 144.5t-171 53q-118 0 -200 -60.5t-129.5 -153.5t-60.5 -190zM902 1155l228 291h113l-270 -291h-71z" />
    <glyph glyph-name="Oslashacute" unicode="&#x1fe;" horiz-adv-x="1346" 
d="M59 -26l-56 64l188 202q-36 89 -43.5 208.5t13.5 267.5q34 244 122.5 411t222 253t301.5 86q123 0 214.5 -45.5t149.5 -134.5l172 184l58 -62l-190 -204q35 -91 43 -212.5t-13 -271.5q-33 -241 -121 -406t-221.5 -249.5t-301.5 -84.5q-124 0 -216 45t-148 133zM613 64
q222 0 356 161.5t180 494.5q18 128 16.5 230.5t-24.5 181.5l-844 -904q92 -164 316 -164zM261 314l844 904q-45 83 -122 123.5t-188 40.5q-222 0 -359 -164.5t-185 -497.5q-16 -126 -14 -227t24 -179zM761 1567l228 291h113l-270 -291h-71z" />
    <glyph glyph-name="oslashacute" unicode="&#x1ff;" horiz-adv-x="989" 
d="M18 -8l-54 56l1006 990l54 -56zM379 -20q-124 0 -210 58t-122.5 176.5t-12.5 299.5q21 162 81.5 283.5t161.5 189t242 67.5q123 0 207 -58.5t120 -178t12 -303.5q-21 -160 -81 -280t-159 -187t-239 -67zM389 54q100 0 181.5 50t137 152t75.5 258q18 139 -4.5 243.5
t-89 162.5t-180.5 58q-102 0 -184.5 -50t-138 -153t-76.5 -261q-18 -138 5 -241.5t91 -161t183 -57.5zM452 1155l228 291h113l-270 -291h-71z" />
    <glyph glyph-name="uni0200" unicode="&#x200;" horiz-adv-x="1304" 
d="M42 0l690 1446h102l282 -1446h-79l-88 456h-610l-220 -456h-77zM377 542h557l-160 820zM650 1567l-213 291h109l172 -291h-68zM840 1567l-181 291h110l139 -291h-68z" />
    <glyph glyph-name="uni0201" unicode="&#x201;" horiz-adv-x="1060" 
d="M352 -20q-94 0 -158 34.5t-92 98t-17 151.5q24 174 139 253.5t353 88.5l220 8l15 100q17 125 -50 194.5t-189 69.5q-103 0 -187 -56.5t-114 -163.5h-78q15 73 65.5 141t133.5 111.5t194 43.5q101 0 173 -41t105 -116.5t18 -180.5l-100 -716h-66l24 200
q-81 -129 -183 -174.5t-206 -45.5zM373 54q59 0 123 23.5t120.5 64t95 90.5t45.5 102l28 202l-183 -4q-152 -3 -244 -31t-137.5 -84.5t-59.5 -146.5q-13 -102 45 -159t167 -57zM478 1155l-213 291h109l172 -291h-68zM668 1155l-181 291h110l139 -291h-68z" />
    <glyph glyph-name="uni0202" unicode="&#x202;" horiz-adv-x="1304" 
d="M42 0l690 1446h102l282 -1446h-79l-88 456h-610l-220 -456h-77zM377 542h557l-160 820zM547 1591q15 40 48 81t85 69t123 28q73 0 118.5 -30.5t68.5 -72t27 -75.5h-90q-13 29 -42 63.5t-92 34.5q-48 0 -79.5 -18.5t-50 -42t-28.5 -37.5h-88z" />
    <glyph glyph-name="uni0203" unicode="&#x203;" horiz-adv-x="1060" 
d="M352 -20q-94 0 -158 34.5t-92 98t-17 151.5q24 174 139 253.5t353 88.5l220 8l15 100q17 125 -50 194.5t-189 69.5q-103 0 -187 -56.5t-114 -163.5h-78q15 73 65.5 141t133.5 111.5t194 43.5q101 0 173 -41t105 -116.5t18 -180.5l-100 -716h-66l24 200
q-81 -129 -183 -174.5t-206 -45.5zM373 54q59 0 123 23.5t120.5 64t95 90.5t45.5 102l28 202l-183 -4q-152 -3 -244 -31t-137.5 -84.5t-59.5 -146.5q-13 -102 45 -159t167 -57zM355 1179q15 40 48 81t85 69t123 28q73 0 118.5 -30.5t68.5 -72t27 -75.5h-90q-13 29 -42 63.5
t-92 34.5q-48 0 -79.5 -18.5t-50 -42t-28.5 -37.5h-88z" />
    <glyph glyph-name="uni0204" unicode="&#x204;" horiz-adv-x="1150" 
d="M147 0l204 1446h764l-12 -80h-692l-84 -594h644l-10 -82h-644l-86 -606l718 -2l-12 -82h-790zM582 1567l-213 291h109l172 -291h-68zM772 1567l-181 291h110l139 -291h-68z" />
    <glyph glyph-name="uni0205" unicode="&#x205;" horiz-adv-x="1050" 
d="M471 -20q-126 0 -213 61.5t-124.5 179.5t-13.5 287q24 171 90 293.5t167.5 187.5t233.5 65q124 0 203.5 -59t110.5 -170.5t8 -270.5l-7 -56h-729q-16 -117 6 -217.5t90 -162.5t189 -62q114 0 203 59t120 161h78q-33 -100 -97.5 -166t-146.5 -98t-168 -32zM209 574h650
q17 115 -4.5 206.5t-84.5 144.5t-171 53q-118 0 -200 -60.5t-129.5 -153.5t-60.5 -190zM476 1155l-213 291h109l172 -291h-68zM666 1155l-181 291h110l139 -291h-68z" />
    <glyph glyph-name="uni0206" unicode="&#x206;" horiz-adv-x="1150" 
d="M147 0l204 1446h764l-12 -80h-692l-84 -594h644l-10 -82h-644l-86 -606l718 -2l-12 -82h-790zM479 1591q15 40 48 81t85 69t123 28q73 0 118.5 -30.5t68.5 -72t27 -75.5h-90q-13 29 -42 63.5t-92 34.5q-48 0 -79.5 -18.5t-50 -42t-28.5 -37.5h-88z" />
    <glyph glyph-name="uni0207" unicode="&#x207;" horiz-adv-x="1050" 
d="M471 -20q-126 0 -213 61.5t-124.5 179.5t-13.5 287q24 171 90 293.5t167.5 187.5t233.5 65q124 0 203.5 -59t110.5 -170.5t8 -270.5l-7 -56h-729q-16 -117 6 -217.5t90 -162.5t189 -62q114 0 203 59t120 161h78q-33 -100 -97.5 -166t-146.5 -98t-168 -32zM209 574h650
q17 115 -4.5 206.5t-84.5 144.5t-171 53q-118 0 -200 -60.5t-129.5 -153.5t-60.5 -190zM373 1179q15 40 48 81t85 69t123 28q73 0 118.5 -30.5t68.5 -72t27 -75.5h-90q-13 29 -42 63.5t-92 34.5q-48 0 -79.5 -18.5t-50 -42t-28.5 -37.5h-88z" />
    <glyph glyph-name="uni0208" unicode="&#x208;" horiz-adv-x="514" 
d="M149 0l202 1446h72l-202 -1446h-72zM256 1567l-213 291h109l172 -291h-68zM446 1567l-181 291h110l139 -291h-68z" />
    <glyph glyph-name="uni0209" unicode="&#x209;" horiz-adv-x="433" 
d="M108 0l145 1034h73l-146 -1034h-72zM155 1155l-213 291h109l172 -291h-68zM345 1155l-181 291h110l139 -291h-68z" />
    <glyph glyph-name="uni020A" unicode="&#x20a;" horiz-adv-x="514" 
d="M149 0l202 1446h72l-202 -1446h-72zM153 1591q15 40 48 81t85 69t123 28q73 0 118.5 -30.5t68.5 -72t27 -75.5h-90q-13 29 -42 63.5t-92 34.5q-48 0 -79.5 -18.5t-50 -42t-28.5 -37.5h-88z" />
    <glyph glyph-name="uni020B" unicode="&#x20b;" horiz-adv-x="433" 
d="M108 0l145 1034h73l-146 -1034h-72zM52 1179q15 40 48 81t85 69t123 28q73 0 118.5 -30.5t68.5 -72t27 -75.5h-90q-13 29 -42 63.5t-92 34.5q-48 0 -79.5 -18.5t-50 -42t-28.5 -37.5h-88z" />
    <glyph glyph-name="uni020C" unicode="&#x20c;" horiz-adv-x="1329" 
d="M591 -20q-170 0 -279.5 84t-151 248t-7.5 404q34 244 123 411t222.5 253t302.5 86q168 0 276 -85t149 -251.5t7 -409.5q-34 -241 -121.5 -406t-220 -249.5t-300.5 -84.5zM605 62q148 0 260 72t184.5 218t103.5 368q31 223 -1 370.5t-123.5 220.5t-239.5 73
q-222 0 -364.5 -165.5t-189.5 -498.5q-31 -221 2 -367t126 -218.5t242 -72.5zM668 1567l-213 291h109l172 -291h-68zM858 1567l-181 291h110l139 -291h-68z" />
    <glyph glyph-name="uni020D" unicode="&#x20d;" horiz-adv-x="1044" 
d="M455 -20q-124 0 -210 58t-122.5 176.5t-12.5 299.5q21 162 81.5 283.5t161.5 189t242 67.5q123 0 207 -58.5t120 -178t12 -303.5q-21 -160 -81 -280t-159 -187t-239 -67zM465 54q100 0 181.5 50t137 152t75.5 258q18 139 -4.5 243.5t-89 162.5t-180.5 58
q-102 0 -184.5 -50t-138 -153t-76.5 -261q-18 -138 5 -241.5t91 -161t183 -57.5zM428 1155l-213 291h109l172 -291h-68zM618 1155l-181 291h110l139 -291h-68z" />
    <glyph glyph-name="uni020E" unicode="&#x20e;" horiz-adv-x="1329" 
d="M591 -20q-170 0 -279.5 84t-151 248t-7.5 404q34 244 123 411t222.5 253t302.5 86q168 0 276 -85t149 -251.5t7 -409.5q-34 -241 -121.5 -406t-220 -249.5t-300.5 -84.5zM605 62q148 0 260 72t184.5 218t103.5 368q31 223 -1 370.5t-123.5 220.5t-239.5 73
q-222 0 -364.5 -165.5t-189.5 -498.5q-31 -221 2 -367t126 -218.5t242 -72.5zM565 1591q15 40 48 81t85 69t123 28q73 0 118.5 -30.5t68.5 -72t27 -75.5h-90q-13 29 -42 63.5t-92 34.5q-48 0 -79.5 -18.5t-50 -42t-28.5 -37.5h-88z" />
    <glyph glyph-name="uni020F" unicode="&#x20f;" horiz-adv-x="1044" 
d="M455 -20q-124 0 -210 58t-122.5 176.5t-12.5 299.5q21 162 81.5 283.5t161.5 189t242 67.5q123 0 207 -58.5t120 -178t12 -303.5q-21 -160 -81 -280t-159 -187t-239 -67zM465 54q100 0 181.5 50t137 152t75.5 258q18 139 -4.5 243.5t-89 162.5t-180.5 58
q-102 0 -184.5 -50t-138 -153t-76.5 -261q-18 -138 5 -241.5t91 -161t183 -57.5zM325 1179q15 40 48 81t85 69t123 28q73 0 118.5 -30.5t68.5 -72t27 -75.5h-90q-13 29 -42 63.5t-92 34.5q-48 0 -79.5 -18.5t-50 -42t-28.5 -37.5h-88z" />
    <glyph glyph-name="uni0210" unicode="&#x210;" horiz-adv-x="1244" 
d="M147 0l204 1446h468q129 0 215 -40t123.5 -119.5t21.5 -198.5q-17 -121 -72 -199t-127 -121.5t-139 -61.5l176 -706h-82l-172 688h-446l-98 -688h-72zM327 770h336q128 0 220 30.5t146.5 97.5t69.5 176q21 155 -53.5 223.5t-238.5 68.5h-396zM602 1567l-213 291h109
l172 -291h-68zM792 1567l-181 291h110l139 -291h-68z" />
    <glyph glyph-name="uni0211" unicode="&#x211;" horiz-adv-x="705" 
d="M107 0l146 1034h66l-21 -154q35 70 84.5 107.5t103.5 52t100 14.5q29 0 57 -4.5t44 -15.5l-11 -80q-18 10 -50 14t-52 4q-45 0 -108.5 -20t-116.5 -74.5t-68 -157.5l-101 -720h-73zM266 1155l-213 291h109l172 -291h-68zM456 1155l-181 291h110l139 -291h-68z" />
    <glyph glyph-name="uni0212" unicode="&#x212;" horiz-adv-x="1244" 
d="M147 0l204 1446h468q129 0 215 -40t123.5 -119.5t21.5 -198.5q-17 -121 -72 -199t-127 -121.5t-139 -61.5l176 -706h-82l-172 688h-446l-98 -688h-72zM327 770h336q128 0 220 30.5t146.5 97.5t69.5 176q21 155 -53.5 223.5t-238.5 68.5h-396zM499 1591q15 40 48 81t85 69
t123 28q73 0 118.5 -30.5t68.5 -72t27 -75.5h-90q-13 29 -42 63.5t-92 34.5q-48 0 -79.5 -18.5t-50 -42t-28.5 -37.5h-88z" />
    <glyph glyph-name="uni0213" unicode="&#x213;" horiz-adv-x="705" 
d="M107 0l146 1034h66l-21 -154q35 70 84.5 107.5t103.5 52t100 14.5q29 0 57 -4.5t44 -15.5l-11 -80q-18 10 -50 14t-52 4q-45 0 -108.5 -20t-116.5 -74.5t-68 -157.5l-101 -720h-73zM163 1179q15 40 48 81t85 69t123 28q73 0 118.5 -30.5t68.5 -72t27 -75.5h-90
q-13 29 -42 63.5t-92 34.5q-48 0 -79.5 -18.5t-50 -42t-28.5 -37.5h-88z" />
    <glyph glyph-name="uni0214" unicode="&#x214;" horiz-adv-x="1277" 
d="M585 -20q-151 0 -241 53.5t-121.5 164t-7.5 280.5l136 968h78l-140 -1002q-18 -126 9 -212.5t101 -131t196 -44.5q185 0 291 98t133 290l140 1002h71l-139 -998q-22 -157 -85 -261t-168 -155.5t-253 -51.5zM660 1567l-213 291h109l172 -291h-68zM850 1567l-181 291h110
l139 -291h-68z" />
    <glyph glyph-name="uni0215" unicode="&#x215;" horiz-adv-x="1074" 
d="M456 -20q-83 1 -148 24t-107.5 68t-59.5 113.5t-4 160.5l96 688h73l-97 -688q-19 -130 42 -210t211 -80q133 0 224.5 75t113.5 231l95 672h72l-146 -1034h-66l21 190q-26 -64 -71 -111.5t-107.5 -73.5t-141.5 -25zM468 1155l-213 291h109l172 -291h-68zM658 1155
l-181 291h110l139 -291h-68z" />
    <glyph glyph-name="uni0216" unicode="&#x216;" horiz-adv-x="1277" 
d="M585 -20q-151 0 -241 53.5t-121.5 164t-7.5 280.5l136 968h78l-140 -1002q-18 -126 9 -212.5t101 -131t196 -44.5q185 0 291 98t133 290l140 1002h71l-139 -998q-22 -157 -85 -261t-168 -155.5t-253 -51.5zM557 1591q15 40 48 81t85 69t123 28q73 0 118.5 -30.5t68.5 -72
t27 -75.5h-90q-13 29 -42 63.5t-92 34.5q-48 0 -79.5 -18.5t-50 -42t-28.5 -37.5h-88z" />
    <glyph glyph-name="uni0217" unicode="&#x217;" horiz-adv-x="1074" 
d="M456 -20q-83 1 -148 24t-107.5 68t-59.5 113.5t-4 160.5l96 688h73l-97 -688q-19 -130 42 -210t211 -80q133 0 224.5 75t113.5 231l95 672h72l-146 -1034h-66l21 190q-26 -64 -71 -111.5t-107.5 -73.5t-141.5 -25zM365 1179q15 40 48 81t85 69t123 28q73 0 118.5 -30.5
t68.5 -72t27 -75.5h-90q-13 29 -42 63.5t-92 34.5q-48 0 -79.5 -18.5t-50 -42t-28.5 -37.5h-88z" />
    <glyph glyph-name="uni0218" unicode="&#x218;" horiz-adv-x="1241" 
d="M554 -20q-90 0 -168.5 24.5t-138.5 72t-94.5 117t-37.5 160.5h81q8 -98 59 -164t132 -99t177 -33q115 0 207 37.5t150 103.5t69 151q10 77 -7 137t-64 102t-128 65l-282 80q-140 40 -208.5 120.5t-51.5 209.5q15 114 81 204.5t172 143t238 52.5q149 0 241 -59.5
t130 -151.5t25 -189h-82q5 120 -40.5 189.5t-122 99t-165.5 29.5q-78 0 -165.5 -33t-153.5 -103t-81 -180q-12 -93 40.5 -152t200.5 -103l270 -80q75 -22 123.5 -60.5t75 -88.5t33.5 -108t-1 -120q-13 -102 -75.5 -187t-172.5 -136t-266 -51zM399 -320l80 99h-41l17 121h116
l-15 -103l-112 -117h-45z" />
    <glyph glyph-name="uni0219" unicode="&#x219;" horiz-adv-x="917" 
d="M404 -20q-100 0 -174.5 32t-114 98t-36.5 166h77q3 -66 32 -115.5t85.5 -77t141.5 -27.5q116 0 194 51.5t93 158.5q10 72 -18 115.5t-91 63.5l-219 68q-100 32 -152.5 90t-38.5 161q12 87 56.5 152t122.5 101.5t189 36.5q135 0 211.5 -67t63.5 -207h-77q3 89 -48 143.5
t-160 54.5q-113 0 -190 -52t-92 -162q-10 -70 29.5 -109.5t116.5 -63.5l218 -68q50 -16 83 -42t51 -59t22.5 -72t-1.5 -80q-12 -87 -57 -152t-124 -101.5t-193 -36.5zM282 -320l80 99h-41l17 121h116l-15 -103l-112 -117h-45z" />
    <glyph glyph-name="uni021A" unicode="&#x21a;" horiz-adv-x="1066" 
d="M442 0l192 1366h-456l10 80h948l-9 -80h-421l-192 -1366h-72zM355 -316l80 99h-41l17 121h116l-15 -103l-112 -117h-45z" />
    <glyph glyph-name="uni021B" unicode="&#x21b;" horiz-adv-x="689" 
d="M396 0q-72 0 -109.5 23.5t-47 74.5t1.5 134l103 734h-156l11 68h153l61 290h55l-40 -290h220l-10 -68h-220l-102 -724q-15 -108 14 -136t112 -28h80l-10 -68q-17 -6 -49 -8t-67 -2zM223 -320l80 99h-41l17 121h116l-15 -103l-112 -117h-45z" />
    <glyph glyph-name="uni0237" unicode="&#x237;" horiz-adv-x="440" 
d="M-60 -332q-82 0 -100 3t-17 15l8 52l116 2q71 2 107 39.5t49 130.5l158 1124h72l-160 -1134q-16 -120 -64 -176t-169 -56z" />
    <glyph glyph-name="uni0259" unicode="&#x259;" horiz-adv-x="1050" 
d="M439 -20q-123 0 -203 59t-110.5 170.5t-8.5 270.5l7 56h729q17 117 -5 218t-90 162.5t-190 61.5q-114 0 -202.5 -59t-120.5 -161h-78q33 101 97.5 166.5t146.5 97.5t168 32q126 0 213.5 -61.5t124.5 -179.5t13 -287q-24 -171 -89.5 -293.5t-167.5 -187.5t-234 -65z
M451 56q118 0 200.5 60.5t129.5 153.5t60 190h-650q-16 -115 5 -206.5t84 -144.5t171 -53z" />
    <glyph glyph-name="uni02BB" unicode="&#x2bb;" horiz-adv-x="353" 
d="M177 1068l20 138q7 50 27.5 91t48 69.5t56 42t50.5 7.5l-8 -54h-10q-31 0 -59.5 -42.5t-34.5 -87.5l-2 -8h86l-22 -156h-152z" />
    <glyph glyph-name="uni02BC" unicode="&#x2bc;" horiz-adv-x="386" 
d="M178 1070l15 54h9q29 0 61 42.5t44 87.5l3 8h-79l42 156h140l-38 -138q-13 -49 -37.5 -90.5t-54 -70t-57.5 -42t-48 -7.5z" />
    <glyph glyph-name="circumflex" unicode="&#x2c6;" horiz-adv-x="498" 
d="M92 1155l246 190h58l190 -190h-112l-118 120l-160 -120h-104z" />
    <glyph glyph-name="caron" unicode="&#x2c7;" horiz-adv-x="500" 
d="M312 1154l-194 190h106l126 -120l154 120h110l-242 -190h-60z" />
    <glyph glyph-name="breve" unicode="&#x2d8;" horiz-adv-x="489" 
d="M331 1155q-71 0 -115.5 28t-66 69t-24.5 81h88q6 -14 18 -37.5t38 -42t74 -18.5q63 0 102 35t60 63h90q-14 -34 -48.5 -75.5t-88.5 -72t-127 -30.5z" />
    <glyph glyph-name="dotaccent" unicode="&#x2d9;" horiz-adv-x="109" 
d="M125 1326l16 120h88l-16 -120h-88z" />
    <glyph glyph-name="ring" unicode="&#x2da;" horiz-adv-x="393" 
d="M288 1172q-73 0 -117.5 57t-32.5 141q7 52 37.5 94.5t75 68t93.5 25.5q75 0 119.5 -55.5t32.5 -136.5q-7 -55 -37 -99t-75 -69.5t-96 -25.5zM298 1250q44 0 79.5 35t42.5 81q6 51 -19.5 82.5t-70.5 31.5q-40 0 -76 -31.5t-44 -82.5q-7 -46 19.5 -81t68.5 -35z" />
    <glyph glyph-name="ogonek" unicode="&#x2db;" horiz-adv-x="350" 
d="M64 -328q-86 0 -119 43t-24 109q9 65 59 113.5t167 84.5l60 -18q-96 -45 -147.5 -86t-60.5 -98q-4 -40 16.5 -61t75.5 -21q47 0 85 11.5t51 18.5l-10 -62q-22 -12 -64 -23t-89 -11z" />
    <glyph glyph-name="tilde" unicode="&#x2dc;" horiz-adv-x="506" 
d="M141 1249l-14 60q32 27 63.5 44.5t74.5 17.5q39 0 70.5 -12.5t63.5 -25t72 -12.5q35 0 58.5 11.5t51.5 30.5l18 -68q-21 -13 -53.5 -29.5t-86.5 -16.5q-46 0 -75.5 12t-56.5 24t-64 12q-45 0 -72 -17t-50 -31z" />
    <glyph glyph-name="hungarumlaut" unicode="&#x2dd;" horiz-adv-x="451" 
d="M291 1155l172 291h109l-213 -291h-68zM101 1155l139 291h110l-181 -291h-68z" />
    <glyph glyph-name="gravecomb" unicode="&#x300;" 
d="M421 1155l-200 291h103l158 -291h-61z" />
    <glyph glyph-name="acutecomb" unicode="&#x301;" 
d="M100 1155l228 291h113l-270 -291h-71z" />
    <glyph glyph-name="uni0302" unicode="&#x302;" 
d="M92 1155l246 190h58l190 -190h-112l-118 120l-160 -120h-104z" />
    <glyph glyph-name="tildecomb" unicode="&#x303;" 
d="M141 1249l-14 60q32 27 63.5 44.5t74.5 17.5q39 0 70.5 -12.5t63.5 -25t72 -12.5q35 0 58.5 11.5t51.5 30.5l18 -68q-21 -13 -53.5 -29.5t-86.5 -16.5q-46 0 -75.5 12t-56.5 24t-64 12q-45 0 -72 -17t-50 -31z" />
    <glyph glyph-name="uni0304" unicode="&#x304;" 
d="M124 1265l10 74h452l-10 -74h-452z" />
    <glyph glyph-name="uni0306" unicode="&#x306;" 
d="M331 1155q-71 0 -115.5 28t-66 69t-24.5 81h88q6 -14 18 -37.5t38 -42t74 -18.5q63 0 102 35t60 63h90q-14 -34 -48.5 -75.5t-88.5 -72t-127 -30.5z" />
    <glyph glyph-name="uni0307" unicode="&#x307;" 
d="M125 1326l16 120h88l-16 -120h-88z" />
    <glyph glyph-name="uni0308" unicode="&#x308;" 
d="M352 1326l16 120h88l-16 -120h-88zM120 1326l16 120h88l-16 -120h-88z" />
    <glyph glyph-name="hookabovecomb" unicode="&#x309;" 
d="M739 1156l-28 60q47 30 71.5 69t10.5 73q-15 36 -57 33t-89 -33l-28 62q80 50 145 43t91 -63q32 -66 -3 -131t-113 -113z" />
    <glyph glyph-name="uni030A" unicode="&#x30a;" 
d="M288 1172q-73 0 -117.5 57t-32.5 141q7 52 37.5 94.5t75 68t93.5 25.5q75 0 119.5 -55.5t32.5 -136.5q-7 -55 -37 -99t-75 -69.5t-96 -25.5zM298 1250q44 0 79.5 35t42.5 81q6 51 -19.5 82.5t-70.5 31.5q-40 0 -76 -31.5t-44 -82.5q-7 -46 19.5 -81t68.5 -35z" />
    <glyph glyph-name="uni030B" unicode="&#x30b;" 
d="M291 1155l172 291h109l-213 -291h-68zM101 1155l139 291h110l-181 -291h-68z" />
    <glyph glyph-name="uni030C" unicode="&#x30c;" 
d="M312 1154l-194 190h106l126 -120l154 120h110l-242 -190h-60z" />
    <glyph glyph-name="uni030F" unicode="&#x30f;" 
d="M354 1155l-213 291h109l172 -291h-68zM544 1155l-181 291h110l139 -291h-68z" />
    <glyph glyph-name="uni0311" unicode="&#x311;" 
d="M91 1179q15 40 48 81t85 69t123 28q73 0 118.5 -30.5t68.5 -72t27 -75.5h-90q-13 29 -42 63.5t-92 34.5q-48 0 -79.5 -18.5t-50 -42t-28.5 -37.5h-88z" />
    <glyph glyph-name="uni0312" unicode="&#x312;" 
d="M541 1155l24 170l88 130h62l-84 -138h46l-24 -162h-112z" />
    <glyph glyph-name="uni031B" unicode="&#x31b;" 
d="M65 980l12 82q38 -1 65.5 6t46.5 26.5t32 54t22 89.5h94q-13 -95 -47.5 -155.5t-90.5 -86t-134 -16.5z" />
    <glyph glyph-name="dotbelowcomb" unicode="&#x323;" 
d="M-107 -320l16 120h88l-16 -120h-88z" />
    <glyph glyph-name="uni0326" unicode="&#x326;" 
d="M-123 -320l80 99h-41l17 121h116l-15 -103l-112 -117h-45z" />
    <glyph glyph-name="uni0327" unicode="&#x327;" 
d="M26 -398q-42 0 -74 12t-58 34l28 56q17 -19 39.5 -31.5t64.5 -12.5q57 0 84.5 22t33.5 62q8 47 -23.5 69t-100.5 25q-7 0 -8 2.5t2 5.5l88 164h62l-64 -124q55 -5 83 -26t36.5 -51t4.5 -61q-7 -49 -36 -81.5t-71.5 -48.5t-90.5 -16z" />
    <glyph glyph-name="uni0328" unicode="&#x328;" 
d="M64 -328q-86 0 -119 43t-24 109q9 65 59 113.5t167 84.5l60 -18q-96 -45 -147.5 -86t-60.5 -98q-4 -40 16.5 -61t75.5 -21q47 0 85 11.5t51 18.5l-10 -62q-22 -12 -64 -23t-89 -11z" />
    <glyph glyph-name="pi" unicode="&#x3c0;" horiz-adv-x="1296" 
d="M239 0q22 83 42 187t36 226t25 256.5t9 276.5q0 20 -16 20h-202v68h1166v-68h-262v-966h-78l-2 966h-534q0 -149 -9.5 -291.5t-25.5 -269.5t-37.5 -230.5t-45.5 -174.5h-66z" />
    <glyph glyph-name="uni1E0C" unicode="&#x1e0c;" horiz-adv-x="1266" 
d="M150 0l201 1446q2 0 69.5 -1t148.5 -1q128 -1 227.5 -21.5t172 -62.5t119.5 -104.5t70 -147.5t23 -192q0 -125 -18 -241t-58 -218.5t-104 -186t-156.5 -144t-215.5 -93.5t-281 -33h-198zM240 82h109q211 0 355.5 60.5t232.5 170.5t127 260.5t39 330.5q0 178 -65.5 278
t-190.5 141t-303 41h-124zM414 -320l16 120h88l-16 -120h-88z" />
    <glyph glyph-name="uni1E0D" unicode="&#x1e0d;" horiz-adv-x="1110" 
d="M441 -20q-181 0 -273.5 132.5t-57.5 407.5q32 240 149.5 387t321.5 147q86 0 144 -25t93.5 -61t53 -70t21.5 -52l84 640h74l-194 -1486h-66l22 212q-7 -18 -30 -55.5t-66 -78.5t-110.5 -69.5t-165.5 -28.5zM452 54q188 0 278 114.5t123 364.5q16 136 -3 236t-84 154.5
t-188 54.5q-148 0 -252.5 -109t-133.5 -336q-28 -215 34 -347t226 -132zM361 -320l16 120h88l-16 -120h-88z" />
    <glyph glyph-name="uni1E24" unicode="&#x1e24;" horiz-adv-x="1444" 
d="M148 0l203 1446h72l-92 -652h860l91 652h72l-203 -1446h-72l100 712h-859l-100 -712h-72zM568 -320l16 120h88l-16 -120h-88z" />
    <glyph glyph-name="uni1E25" unicode="&#x1e25;" horiz-adv-x="1080" 
d="M123 0l193 1486h67l-79 -606q47 74 138 124t208 50q95 0 166 -36.5t106.5 -101.5t23.5 -150l-99 -766h-73l96 736q15 114 -47.5 178t-184.5 64q-85 0 -160.5 -28t-126.5 -85t-62 -145l-94 -720h-72zM413 -320l16 120h88l-16 -120h-88z" />
    <glyph glyph-name="uni1E44" unicode="&#x1e44;" horiz-adv-x="1372" 
d="M147 0l204 1446h58l620 -1290l182 1290h72l-204 -1446h-62l-616 1286l-182 -1286h-72zM815 1738l16 120h88l-16 -120h-88z" />
    <glyph glyph-name="uni1E45" unicode="&#x1e45;" horiz-adv-x="1060" 
d="M108 0l145 1034h65l-19 -154q31 49 82 88.5t117.5 62.5t143.5 23q96 0 165.5 -41t101 -126t12.5 -217l-94 -670h-72l95 670q22 150 -37.5 229t-179.5 79q-85 0 -161 -28t-127.5 -85t-63.5 -145l-102 -720h-71zM631 1326l16 120h88l-16 -120h-88z" />
    <glyph glyph-name="uni1E5A" unicode="&#x1e5a;" horiz-adv-x="1244" 
d="M147 0l204 1446h468q129 0 215 -40t123.5 -119.5t21.5 -198.5q-17 -121 -72 -199t-127 -121.5t-139 -61.5l176 -706h-82l-172 688h-446l-98 -688h-72zM327 770h336q128 0 220 30.5t146.5 97.5t69.5 176q21 155 -53.5 223.5t-238.5 68.5h-396zM457 -320l16 120h88
l-16 -120h-88z" />
    <glyph glyph-name="uni1E5B" unicode="&#x1e5b;" horiz-adv-x="705" 
d="M107 0l146 1034h66l-21 -154q35 70 84.5 107.5t103.5 52t100 14.5q29 0 57 -4.5t44 -15.5l-11 -80q-18 10 -50 14t-52 4q-45 0 -108.5 -20t-116.5 -74.5t-68 -157.5l-101 -720h-73zM45 -320l16 120h88l-16 -120h-88z" />
    <glyph glyph-name="uni1E62" unicode="&#x1e62;" horiz-adv-x="1241" 
d="M554 -20q-90 0 -168.5 24.5t-138.5 72t-94.5 117t-37.5 160.5h81q8 -98 59 -164t132 -99t177 -33q115 0 207 37.5t150 103.5t69 151q10 77 -7 137t-64 102t-128 65l-282 80q-140 40 -208.5 120.5t-51.5 209.5q15 114 81 204.5t172 143t238 52.5q149 0 241 -59.5
t130 -151.5t25 -189h-82q5 120 -40.5 189.5t-122 99t-165.5 29.5q-78 0 -165.5 -33t-153.5 -103t-81 -180q-12 -93 40.5 -152t200.5 -103l270 -80q75 -22 123.5 -60.5t75 -88.5t33.5 -108t-1 -120q-13 -102 -75.5 -187t-172.5 -136t-266 -51zM438 -320l16 120h88l-16 -120
h-88z" />
    <glyph glyph-name="uni1E63" unicode="&#x1e63;" horiz-adv-x="917" 
d="M404 -20q-100 0 -174.5 32t-114 98t-36.5 166h77q3 -66 32 -115.5t85.5 -77t141.5 -27.5q116 0 194 51.5t93 158.5q10 72 -18 115.5t-91 63.5l-219 68q-100 32 -152.5 90t-38.5 161q12 87 56.5 152t122.5 101.5t189 36.5q135 0 211.5 -67t63.5 -207h-77q3 89 -48 143.5
t-160 54.5q-113 0 -190 -52t-92 -162q-10 -70 29.5 -109.5t116.5 -63.5l218 -68q50 -16 83 -42t51 -59t22.5 -72t-1.5 -80q-12 -87 -57 -152t-124 -101.5t-193 -36.5zM321 -320l16 120h88l-16 -120h-88z" />
    <glyph glyph-name="uni1E6C" unicode="&#x1e6c;" horiz-adv-x="1066" 
d="M442 0l192 1366h-456l10 80h948l-9 -80h-421l-192 -1366h-72zM394 -316l16 120h88l-16 -120h-88z" />
    <glyph glyph-name="uni1E6D" unicode="&#x1e6d;" horiz-adv-x="689" 
d="M396 0q-72 0 -109.5 23.5t-47 74.5t1.5 134l103 734h-156l11 68h153l61 290h55l-40 -290h220l-10 -68h-220l-102 -724q-15 -108 14 -136t112 -28h80l-10 -68q-17 -6 -49 -8t-67 -2zM262 -320l16 120h88l-16 -120h-88z" />
    <glyph glyph-name="Wgrave" unicode="&#x1e80;" horiz-adv-x="1742" 
d="M359 0l-170 1446h82l151 -1348l542 1348h71l160 -1348l542 1348h78l-586 -1446h-99l-152 1296l-523 -1296h-96zM997 1567l-200 291h103l158 -291h-61z" />
    <glyph glyph-name="wgrave" unicode="&#x1e81;" horiz-adv-x="1430" 
d="M282 0l-134 1034h78l120 -948h22l388 948h66l136 -944h22l374 944h74l-408 -1034h-120l-130 900l-362 -900h-126zM791 1155l-200 291h103l158 -291h-61z" />
    <glyph glyph-name="Wacute" unicode="&#x1e82;" horiz-adv-x="1742" 
d="M359 0l-170 1446h82l151 -1348l542 1348h71l160 -1348l542 1348h78l-586 -1446h-99l-152 1296l-523 -1296h-96zM958 1567l228 291h113l-270 -291h-71z" />
    <glyph glyph-name="wacute" unicode="&#x1e83;" horiz-adv-x="1430" 
d="M282 0l-134 1034h78l120 -948h22l388 948h66l136 -944h22l374 944h74l-408 -1034h-120l-130 900l-362 -900h-126zM752 1155l228 291h113l-270 -291h-71z" />
    <glyph glyph-name="Wdieresis" unicode="&#x1e84;" horiz-adv-x="1742" 
d="M359 0l-170 1446h82l151 -1348l542 1348h71l160 -1348l542 1348h78l-586 -1446h-99l-152 1296l-523 -1296h-96zM1116 1738l16 120h88l-16 -120h-88zM884 1738l16 120h88l-16 -120h-88z" />
    <glyph glyph-name="wdieresis" unicode="&#x1e85;" horiz-adv-x="1430" 
d="M282 0l-134 1034h78l120 -948h22l388 948h66l136 -944h22l374 944h74l-408 -1034h-120l-130 900l-362 -900h-126zM910 1326l16 120h88l-16 -120h-88zM678 1326l16 120h88l-16 -120h-88z" />
    <glyph glyph-name="uni1E92" unicode="&#x1e92;" horiz-adv-x="1134" 
d="M74 0l10 62l964 1306h-764l10 78h860l-8 -60l-970 -1308h786l-12 -78h-876zM446 -320l16 120h88l-16 -120h-88z" />
    <glyph glyph-name="uni1E93" unicode="&#x1e93;" horiz-adv-x="876" 
d="M19 0l8 68l735 898h-565l10 68h645l-9 -68l-733 -898h613l-10 -68h-694zM269 -320l16 120h88l-16 -120h-88z" />
    <glyph glyph-name="uni1EA0" unicode="&#x1ea0;" horiz-adv-x="1304" 
d="M42 0l690 1446h102l282 -1446h-79l-88 456h-610l-220 -456h-77zM377 542h557l-160 820zM491 -320l16 120h88l-16 -120h-88z" />
    <glyph glyph-name="uni1EA1" unicode="&#x1ea1;" horiz-adv-x="1060" 
d="M352 -20q-94 0 -158 34.5t-92 98t-17 151.5q24 174 139 253.5t353 88.5l220 8l15 100q17 125 -50 194.5t-189 69.5q-103 0 -187 -56.5t-114 -163.5h-78q15 73 65.5 141t133.5 111.5t194 43.5q101 0 173 -41t105 -116.5t18 -180.5l-100 -716h-66l24 200
q-81 -129 -183 -174.5t-206 -45.5zM373 54q59 0 123 23.5t120.5 64t95 90.5t45.5 102l28 202l-183 -4q-152 -3 -244 -31t-137.5 -84.5t-59.5 -146.5q-13 -102 45 -159t167 -57zM355 -320l16 120h88l-16 -120h-88z" />
    <glyph glyph-name="uni1EA2" unicode="&#x1ea2;" horiz-adv-x="1304" 
d="M42 0l690 1446h102l282 -1446h-79l-88 456h-610l-220 -456h-77zM377 542h557l-160 820zM845 1542l-28 60q47 30 71.5 69t10.5 73q-15 36 -57 33t-89 -33l-28 62q80 50 145 43t91 -63q32 -66 -3 -131t-113 -113z" />
    <glyph glyph-name="uni1EA3" unicode="&#x1ea3;" horiz-adv-x="1060" 
d="M352 -20q-94 0 -158 34.5t-92 98t-17 151.5q24 174 139 253.5t353 88.5l220 8l15 100q17 125 -50 194.5t-189 69.5q-103 0 -187 -56.5t-114 -163.5h-78q15 73 65.5 141t133.5 111.5t194 43.5q101 0 173 -41t105 -116.5t18 -180.5l-100 -716h-66l24 200
q-81 -129 -183 -174.5t-206 -45.5zM373 54q59 0 123 23.5t120.5 64t95 90.5t45.5 102l28 202l-183 -4q-152 -3 -244 -31t-137.5 -84.5t-59.5 -146.5q-13 -102 45 -159t167 -57zM654 1131l-28 60q47 30 71.5 69t10.5 73q-15 36 -57 33t-89 -33l-28 62q80 50 145 43t91 -63
q32 -66 -3 -131t-113 -113z" />
    <glyph glyph-name="uni1EA4" unicode="&#x1ea4;" horiz-adv-x="1304" 
d="M42 0l690 1446h102l282 -1446h-79l-88 456h-610l-220 -456h-77zM377 542h557l-160 820zM565 1567l246 190h58l190 -190h-112l-118 120l-160 -120h-104zM963 1727l111 204h120l-156 -204h-75z" />
    <glyph glyph-name="uni1EA5" unicode="&#x1ea5;" horiz-adv-x="1029" 
d="M352 -20q-94 0 -158 34.5t-92 98t-17 151.5q24 174 139 253.5t353 88.5l220 8l15 100q17 125 -50 194.5t-189 69.5q-103 0 -187 -56.5t-114 -163.5h-78q15 73 65.5 141t133.5 111.5t194 43.5q101 0 173 -41t105 -116.5t18 -180.5l-100 -716h-66l24 200
q-81 -129 -183 -174.5t-206 -45.5zM373 54q59 0 123 23.5t120.5 64t95 90.5t45.5 102l28 202l-183 -4q-152 -3 -244 -31t-137.5 -84.5t-59.5 -146.5q-13 -102 45 -159t167 -57zM374 1155l246 190h58l190 -190h-112l-118 120l-160 -120h-104zM772 1315l111 204h120l-156 -204
h-75z" />
    <glyph glyph-name="uni1EA6" unicode="&#x1ea6;" horiz-adv-x="1304" 
d="M42 0l690 1446h102l282 -1446h-79l-88 456h-610l-220 -456h-77zM377 542h557l-160 820zM559 1567l246 190h58l190 -190h-112l-118 120l-160 -120h-104zM1015 1725l-134 204h118l89 -204h-73z" />
    <glyph glyph-name="uni1EA7" unicode="&#x1ea7;" horiz-adv-x="1060" 
d="M352 -20q-94 0 -158 34.5t-92 98t-17 151.5q24 174 139 253.5t353 88.5l220 8l15 100q17 125 -50 194.5t-189 69.5q-103 0 -187 -56.5t-114 -163.5h-78q15 73 65.5 141t133.5 111.5t194 43.5q101 0 173 -41t105 -116.5t18 -180.5l-100 -716h-66l24 200
q-81 -129 -183 -174.5t-206 -45.5zM373 54q59 0 123 23.5t120.5 64t95 90.5t45.5 102l28 202l-183 -4q-152 -3 -244 -31t-137.5 -84.5t-59.5 -146.5q-13 -102 45 -159t167 -57zM367 1155l246 190h58l190 -190h-112l-118 120l-160 -120h-104zM823 1313l-134 204h118l89 -204
h-73z" />
    <glyph glyph-name="uni1EA8" unicode="&#x1ea8;" horiz-adv-x="1304" 
d="M42 0l690 1446h102l282 -1446h-79l-88 456h-610l-220 -456h-77zM377 542h557l-160 820zM539 1567l246 190h58l190 -190h-112l-118 120l-160 -120h-104zM966 1662l-28 60q47 30 71.5 69t10.5 73q-15 36 -57 33t-89 -33l-28 62q80 50 145 43t91 -63q32 -66 -3 -131
t-113 -113z" />
    <glyph glyph-name="uni1EA9" unicode="&#x1ea9;" horiz-adv-x="1060" 
d="M352 -20q-94 0 -158 34.5t-92 98t-17 151.5q24 174 139 253.5t353 88.5l220 8l15 100q17 125 -50 194.5t-189 69.5q-103 0 -187 -56.5t-114 -163.5h-78q15 73 65.5 141t133.5 111.5t194 43.5q101 0 173 -41t105 -116.5t18 -180.5l-100 -716h-66l24 200
q-81 -129 -183 -174.5t-206 -45.5zM373 54q59 0 123 23.5t120.5 64t95 90.5t45.5 102l28 202l-183 -4q-152 -3 -244 -31t-137.5 -84.5t-59.5 -146.5q-13 -102 45 -159t167 -57zM348 1155l246 190h58l190 -190h-112l-118 120l-160 -120h-104zM775 1250l-28 60q47 30 71.5 69
t10.5 73q-15 36 -57 33t-89 -33l-28 62q80 50 145 43t91 -63q32 -66 -3 -131t-113 -113z" />
    <glyph glyph-name="uni1EAA" unicode="&#x1eaa;" horiz-adv-x="1304" 
d="M42 0l690 1446h102l282 -1446h-79l-88 456h-610l-220 -456h-77zM377 542h557l-160 820zM555 1567l246 190h58l190 -190h-112l-118 120l-160 -120h-104zM630 1875l-14 60q32 27 63.5 44.5t74.5 17.5q39 0 70.5 -12.5t63.5 -25t72 -12.5q35 0 58.5 11.5t51.5 30.5l18 -68
q-21 -13 -53.5 -29.5t-86.5 -16.5q-46 0 -75.5 12t-56.5 24t-64 12q-45 0 -72 -17t-50 -31z" />
    <glyph glyph-name="uni1EAB" unicode="&#x1eab;" horiz-adv-x="1060" 
d="M352 -20q-94 0 -158 34.5t-92 98t-17 151.5q24 174 139 253.5t353 88.5l220 8l15 100q17 125 -50 194.5t-189 69.5q-103 0 -187 -56.5t-114 -163.5h-78q15 73 65.5 141t133.5 111.5t194 43.5q101 0 173 -41t105 -116.5t18 -180.5l-100 -716h-66l24 200
q-81 -129 -183 -174.5t-206 -45.5zM373 54q59 0 123 23.5t120.5 64t95 90.5t45.5 102l28 202l-183 -4q-152 -3 -244 -31t-137.5 -84.5t-59.5 -146.5q-13 -102 45 -159t167 -57zM363 1155l246 190h58l190 -190h-112l-118 120l-160 -120h-104zM438 1463l-14 60
q32 27 63.5 44.5t74.5 17.5q39 0 70.5 -12.5t63.5 -25t72 -12.5q35 0 58.5 11.5t51.5 30.5l18 -68q-21 -13 -53.5 -29.5t-86.5 -16.5q-46 0 -75.5 12t-56.5 24t-64 12q-45 0 -72 -17t-50 -31z" />
    <glyph glyph-name="uni1EAC" unicode="&#x1eac;" horiz-adv-x="1304" 
d="M42 0l690 1446h102l282 -1446h-79l-88 456h-610l-220 -456h-77zM377 542h557l-160 820zM491 -320l16 120h88l-16 -120h-88zM553 1567l246 190h58l190 -190h-112l-118 120l-160 -120h-104z" />
    <glyph glyph-name="uni1EAD" unicode="&#x1ead;" horiz-adv-x="1060" 
d="M352 -20q-94 0 -158 34.5t-92 98t-17 151.5q24 174 139 253.5t353 88.5l220 8l15 100q17 125 -50 194.5t-189 69.5q-103 0 -187 -56.5t-114 -163.5h-78q15 73 65.5 141t133.5 111.5t194 43.5q101 0 173 -41t105 -116.5t18 -180.5l-100 -716h-66l24 200
q-81 -129 -183 -174.5t-206 -45.5zM373 54q59 0 123 23.5t120.5 64t95 90.5t45.5 102l28 202l-183 -4q-152 -3 -244 -31t-137.5 -84.5t-59.5 -146.5q-13 -102 45 -159t167 -57zM355 -320l16 120h88l-16 -120h-88zM362 1155l246 190h58l190 -190h-112l-118 120l-160 -120
h-104z" />
    <glyph glyph-name="uni1EAE" unicode="&#x1eae;" horiz-adv-x="1304" 
d="M42 0l690 1446h102l282 -1446h-79l-88 456h-610l-220 -456h-77zM377 542h557l-160 820zM818 1567q-71 0 -115.5 28t-66 69t-24.5 81h88q6 -14 18 -37.5t38 -42t74 -18.5q63 0 102 35t60 63h90q-14 -34 -48.5 -75.5t-88.5 -72t-127 -30.5zM800 1753l111 204h120l-156 -204
h-75z" />
    <glyph glyph-name="uni1EAF" unicode="&#x1eaf;" horiz-adv-x="1060" 
d="M352 -20q-94 0 -158 34.5t-92 98t-17 151.5q24 174 139 253.5t353 88.5l220 8l15 100q17 125 -50 194.5t-189 69.5q-103 0 -187 -56.5t-114 -163.5h-78q15 73 65.5 141t133.5 111.5t194 43.5q101 0 173 -41t105 -116.5t18 -180.5l-100 -716h-66l24 200
q-81 -129 -183 -174.5t-206 -45.5zM373 54q59 0 123 23.5t120.5 64t95 90.5t45.5 102l28 202l-183 -4q-152 -3 -244 -31t-137.5 -84.5t-59.5 -146.5q-13 -102 45 -159t167 -57zM627 1155q-71 0 -115.5 28t-66 69t-24.5 81h88q6 -14 18 -37.5t38 -42t74 -18.5q63 0 102 35
t60 63h90q-14 -34 -48.5 -75.5t-88.5 -72t-127 -30.5zM609 1341l111 204h120l-156 -204h-75z" />
    <glyph glyph-name="uni1EB0" unicode="&#x1eb0;" horiz-adv-x="1304" 
d="M42 0l690 1446h102l282 -1446h-79l-88 456h-610l-220 -456h-77zM377 542h557l-160 820zM812 1567q-71 0 -115.5 28t-66 69t-24.5 81h88q6 -14 18 -37.5t38 -42t74 -18.5q63 0 102 35t60 63h90q-14 -34 -48.5 -75.5t-88.5 -72t-127 -30.5zM817 1755l-134 204h118l89 -204
h-73z" />
    <glyph glyph-name="uni1EB1" unicode="&#x1eb1;" horiz-adv-x="1060" 
d="M352 -20q-94 0 -158 34.5t-92 98t-17 151.5q24 174 139 253.5t353 88.5l220 8l15 100q17 125 -50 194.5t-189 69.5q-103 0 -187 -56.5t-114 -163.5h-78q15 73 65.5 141t133.5 111.5t194 43.5q101 0 173 -41t105 -116.5t18 -180.5l-100 -716h-66l24 200
q-81 -129 -183 -174.5t-206 -45.5zM373 54q59 0 123 23.5t120.5 64t95 90.5t45.5 102l28 202l-183 -4q-152 -3 -244 -31t-137.5 -84.5t-59.5 -146.5q-13 -102 45 -159t167 -57zM621 1155q-71 0 -115.5 28t-66 69t-24.5 81h88q6 -14 18 -37.5t38 -42t74 -18.5q63 0 102 35
t60 63h90q-14 -34 -48.5 -75.5t-88.5 -72t-127 -30.5zM626 1343l-134 204h118l89 -204h-73z" />
    <glyph glyph-name="uni1EB2" unicode="&#x1eb2;" horiz-adv-x="1304" 
d="M42 0l690 1446h102l282 -1446h-79l-88 456h-610l-220 -456h-77zM377 542h557l-160 820zM778 1567q-71 0 -115.5 28t-66 69t-24.5 81h88q6 -14 18 -37.5t38 -42t74 -18.5q63 0 102 35t60 63h90q-14 -34 -48.5 -75.5t-88.5 -72t-127 -30.5zM790 1716l-28 60q47 30 71.5 69
t10.5 73q-15 36 -57 33t-89 -33l-28 62q70 43 130 43q77 0 106 -63q32 -66 -3 -131t-113 -113z" />
    <glyph glyph-name="uni1EB3" unicode="&#x1eb3;" horiz-adv-x="1060" 
d="M352 -20q-94 0 -158 34.5t-92 98t-17 151.5q24 174 139 253.5t353 88.5l220 8l15 100q17 125 -50 194.5t-189 69.5q-103 0 -187 -56.5t-114 -163.5h-78q15 73 65.5 141t133.5 111.5t194 43.5q101 0 173 -41t105 -116.5t18 -180.5l-100 -716h-66l24 200
q-81 -129 -183 -174.5t-206 -45.5zM373 54q59 0 123 23.5t120.5 64t95 90.5t45.5 102l28 202l-183 -4q-152 -3 -244 -31t-137.5 -84.5t-59.5 -146.5q-13 -102 45 -159t167 -57zM587 1155q-71 0 -115.5 28t-66 69t-24.5 81h88q6 -14 18 -37.5t38 -42t74 -18.5q63 0 102 35
t60 63h90q-14 -34 -48.5 -75.5t-88.5 -72t-127 -30.5zM599 1304l-28 60q47 30 71.5 69t10.5 73q-15 36 -57 33t-89 -33l-28 62q70 43 130 43q77 0 106 -63q32 -66 -3 -131t-113 -113z" />
    <glyph glyph-name="uni1EB4" unicode="&#x1eb4;" horiz-adv-x="1304" 
d="M42 0l690 1446h102l282 -1446h-79l-88 456h-610l-220 -456h-77zM377 542h557l-160 820zM809 1567q-71 0 -115.5 28t-66 69t-24.5 81h88q6 -14 18 -37.5t38 -42t74 -18.5q63 0 102 35t60 63h90q-14 -34 -48.5 -75.5t-88.5 -72t-127 -30.5zM619 1883l-14 60
q32 27 63.5 44.5t74.5 17.5q39 0 70.5 -12.5t63.5 -25t72 -12.5q35 0 58.5 11.5t51.5 30.5l18 -68q-21 -13 -53.5 -29.5t-86.5 -16.5q-46 0 -75.5 12t-56.5 24t-64 12q-45 0 -72 -17t-50 -31z" />
    <glyph glyph-name="uni1EB5" unicode="&#x1eb5;" horiz-adv-x="1060" 
d="M352 -20q-94 0 -158 34.5t-92 98t-17 151.5q24 174 139 253.5t353 88.5l220 8l15 100q17 125 -50 194.5t-189 69.5q-103 0 -187 -56.5t-114 -163.5h-78q15 73 65.5 141t133.5 111.5t194 43.5q101 0 173 -41t105 -116.5t18 -180.5l-100 -716h-66l24 200
q-81 -129 -183 -174.5t-206 -45.5zM373 54q59 0 123 23.5t120.5 64t95 90.5t45.5 102l28 202l-183 -4q-152 -3 -244 -31t-137.5 -84.5t-59.5 -146.5q-13 -102 45 -159t167 -57zM613 1155q-71 0 -115.5 28t-66 69t-24.5 81h88q6 -14 18 -37.5t38 -42t74 -18.5q63 0 102 35
t60 63h90q-14 -34 -48.5 -75.5t-88.5 -72t-127 -30.5zM423 1471l-14 60q32 27 63.5 44.5t74.5 17.5q39 0 70.5 -12.5t63.5 -25t72 -12.5q35 0 58.5 11.5t51.5 30.5l18 -68q-21 -13 -53.5 -29.5t-86.5 -16.5q-46 0 -75.5 12t-56.5 24t-64 12q-45 0 -72 -17t-50 -31z" />
    <glyph glyph-name="uni1EB6" unicode="&#x1eb6;" horiz-adv-x="1304" 
d="M42 0l690 1446h102l282 -1446h-79l-88 456h-610l-220 -456h-77zM377 542h557l-160 820zM491 -320l16 120h88l-16 -120h-88zM795 1567q-71 0 -115.5 28t-66 69t-24.5 81h88q6 -14 18 -37.5t38 -42t74 -18.5q63 0 102 35t60 63h90q-14 -34 -48.5 -75.5t-88.5 -72
t-127 -30.5z" />
    <glyph glyph-name="uni1EB7" unicode="&#x1eb7;" horiz-adv-x="1016" 
d="M352 -20q-94 0 -158 34.5t-92 98t-17 151.5q24 174 139 253.5t353 88.5l220 8l15 100q17 125 -50 194.5t-189 69.5q-103 0 -187 -56.5t-114 -163.5h-78q15 73 65.5 141t133.5 111.5t194 43.5q101 0 173 -41t105 -116.5t18 -180.5l-100 -716h-66l24 200
q-81 -129 -183 -174.5t-206 -45.5zM373 54q59 0 123 23.5t120.5 64t95 90.5t45.5 102l28 202l-183 -4q-152 -3 -244 -31t-137.5 -84.5t-59.5 -146.5q-13 -102 45 -159t167 -57zM355 -320l16 120h88l-16 -120h-88zM602 1151q-71 0 -115.5 28t-66 69t-24.5 81h88
q6 -14 18 -37.5t38 -42t74 -18.5q63 0 102 35t60 63h90q-14 -34 -48.5 -75.5t-88.5 -72t-127 -30.5z" />
    <glyph glyph-name="uni1EB8" unicode="&#x1eb8;" horiz-adv-x="1150" 
d="M147 0l204 1446h764l-12 -80h-692l-84 -594h644l-10 -82h-644l-86 -606l718 -2l-12 -82h-790zM463 -320l16 120h88l-16 -120h-88z" />
    <glyph glyph-name="uni1EB9" unicode="&#x1eb9;" horiz-adv-x="1050" 
d="M471 -20q-126 0 -213 61.5t-124.5 179.5t-13.5 287q24 171 90 293.5t167.5 187.5t233.5 65q124 0 203.5 -59t110.5 -170.5t8 -270.5l-7 -56h-729q-16 -117 6 -217.5t90 -162.5t189 -62q114 0 203 59t120 161h78q-33 -100 -97.5 -166t-146.5 -98t-168 -32zM209 574h650
q17 115 -4.5 206.5t-84.5 144.5t-171 53q-118 0 -200 -60.5t-129.5 -153.5t-60.5 -190zM383 -320l16 120h88l-16 -120h-88z" />
    <glyph glyph-name="uni1EBA" unicode="&#x1eba;" horiz-adv-x="1150" 
d="M147 0l204 1446h764l-12 -80h-692l-84 -594h644l-10 -82h-644l-86 -606l718 -2l-12 -82h-790zM777 1542l-28 60q47 30 71.5 69t10.5 73q-15 36 -57 33t-89 -33l-28 62q80 50 145 43t91 -63q32 -66 -3 -131t-113 -113z" />
    <glyph glyph-name="uni1EBB" unicode="&#x1ebb;" horiz-adv-x="1050" 
d="M471 -20q-126 0 -213 61.5t-124.5 179.5t-13.5 287q24 171 90 293.5t167.5 187.5t233.5 65q124 0 203.5 -59t110.5 -170.5t8 -270.5l-7 -56h-729q-16 -117 6 -217.5t90 -162.5t189 -62q114 0 203 59t120 161h78q-33 -100 -97.5 -166t-146.5 -98t-168 -32zM209 574h650
q17 115 -4.5 206.5t-84.5 144.5t-171 53q-118 0 -200 -60.5t-129.5 -153.5t-60.5 -190zM671 1130l-28 60q47 30 71.5 69t10.5 73q-15 36 -57 33t-89 -33l-28 62q80 50 145 43t91 -63q32 -66 -3 -131t-113 -113z" />
    <glyph glyph-name="uni1EBC" unicode="&#x1ebc;" horiz-adv-x="1150" 
d="M147 0l204 1446h764l-12 -80h-692l-84 -594h644l-10 -82h-644l-86 -606l718 -2l-12 -82h-790zM532 1661l-14 60q32 27 63.5 44.5t74.5 17.5q39 0 70.5 -12.5t63.5 -25t72 -12.5q35 0 58.5 11.5t51.5 30.5l18 -68q-21 -13 -53.5 -29.5t-86.5 -16.5q-46 0 -75.5 12
t-56.5 24t-64 12q-45 0 -72 -17t-50 -31z" />
    <glyph glyph-name="uni1EBD" unicode="&#x1ebd;" horiz-adv-x="1050" 
d="M471 -20q-126 0 -213 61.5t-124.5 179.5t-13.5 287q24 171 90 293.5t167.5 187.5t233.5 65q124 0 203.5 -59t110.5 -170.5t8 -270.5l-7 -56h-729q-16 -117 6 -217.5t90 -162.5t189 -62q114 0 203 59t120 161h78q-33 -100 -97.5 -166t-146.5 -98t-168 -32zM209 574h650
q17 115 -4.5 206.5t-84.5 144.5t-171 53q-118 0 -200 -60.5t-129.5 -153.5t-60.5 -190zM426 1249l-14 60q32 27 63.5 44.5t74.5 17.5q39 0 70.5 -12.5t63.5 -25t72 -12.5q35 0 58.5 11.5t51.5 30.5l18 -68q-21 -13 -53.5 -29.5t-86.5 -16.5q-46 0 -75.5 12t-56.5 24t-64 12
q-45 0 -72 -17t-50 -31z" />
    <glyph glyph-name="uni1EBE" unicode="&#x1ebe;" horiz-adv-x="1150" 
d="M147 0l204 1446h764l-12 -80h-692l-84 -594h644l-10 -82h-644l-86 -606l718 -2l-12 -82h-790zM497 1567l246 190h58l190 -190h-112l-118 120l-160 -120h-104zM895 1727l111 204h120l-156 -204h-75z" />
    <glyph glyph-name="uni1EBF" unicode="&#x1ebf;" horiz-adv-x="1050" 
d="M471 -20q-126 0 -213 61.5t-124.5 179.5t-13.5 287q24 171 90 293.5t167.5 187.5t233.5 65q124 0 203.5 -59t110.5 -170.5t8 -270.5l-7 -56h-729q-16 -117 6 -217.5t90 -162.5t189 -62q114 0 203 59t120 161h78q-33 -100 -97.5 -166t-146.5 -98t-168 -32zM209 574h650
q17 115 -4.5 206.5t-84.5 144.5t-171 53q-118 0 -200 -60.5t-129.5 -153.5t-60.5 -190zM391 1155l246 190h58l190 -190h-112l-118 120l-160 -120h-104zM789 1315l111 204h120l-156 -204h-75z" />
    <glyph glyph-name="uni1EC0" unicode="&#x1ec0;" horiz-adv-x="1150" 
d="M147 0l204 1446h764l-12 -80h-692l-84 -594h644l-10 -82h-644l-86 -606l718 -2l-12 -82h-790zM491 1567l246 190h58l190 -190h-112l-118 120l-160 -120h-104zM947 1725l-134 204h118l89 -204h-73z" />
    <glyph glyph-name="uni1EC1" unicode="&#x1ec1;" horiz-adv-x="1050" 
d="M471 -20q-126 0 -213 61.5t-124.5 179.5t-13.5 287q24 171 90 293.5t167.5 187.5t233.5 65q124 0 203.5 -59t110.5 -170.5t8 -270.5l-7 -56h-729q-16 -117 6 -217.5t90 -162.5t189 -62q114 0 203 59t120 161h78q-33 -100 -97.5 -166t-146.5 -98t-168 -32zM209 574h650
q17 115 -4.5 206.5t-84.5 144.5t-171 53q-118 0 -200 -60.5t-129.5 -153.5t-60.5 -190zM385 1155l246 190h58l190 -190h-112l-118 120l-160 -120h-104zM841 1313l-134 204h118l89 -204h-73z" />
    <glyph glyph-name="uni1EC2" unicode="&#x1ec2;" horiz-adv-x="1150" 
d="M147 0l204 1446h764l-12 -80h-692l-84 -594h644l-10 -82h-644l-86 -606l718 -2l-12 -82h-790zM471 1567l246 190h58l190 -190h-112l-118 120l-160 -120h-104zM898 1662l-28 60q47 30 71.5 69t10.5 73q-15 36 -57 33t-89 -33l-28 62q80 50 145 43t91 -63q32 -66 -3 -131
t-113 -113z" />
    <glyph glyph-name="uni1EC3" unicode="&#x1ec3;" horiz-adv-x="1050" 
d="M471 -20q-126 0 -213 61.5t-124.5 179.5t-13.5 287q24 171 90 293.5t167.5 187.5t233.5 65q124 0 203.5 -59t110.5 -170.5t8 -270.5l-7 -56h-729q-16 -117 6 -217.5t90 -162.5t189 -62q114 0 203 59t120 161h78q-33 -100 -97.5 -166t-146.5 -98t-168 -32zM209 574h650
q17 115 -4.5 206.5t-84.5 144.5t-171 53q-118 0 -200 -60.5t-129.5 -153.5t-60.5 -190zM365 1155l246 190h58l190 -190h-112l-118 120l-160 -120h-104zM792 1250l-28 60q47 30 71.5 69t10.5 73q-15 36 -57 33t-89 -33l-28 62q80 50 145 43t91 -63q32 -66 -3 -131t-113 -113z
" />
    <glyph glyph-name="uni1EC4" unicode="&#x1ec4;" horiz-adv-x="1150" 
d="M147 0l204 1446h764l-12 -80h-692l-84 -594h644l-10 -82h-644l-86 -606l718 -2l-12 -82h-790zM487 1567l246 190h58l190 -190h-112l-118 120l-160 -120h-104zM562 1875l-14 60q32 27 63.5 44.5t74.5 17.5q39 0 70.5 -12.5t63.5 -25t72 -12.5q35 0 58.5 11.5t51.5 30.5
l18 -68q-21 -13 -53.5 -29.5t-86.5 -16.5q-46 0 -75.5 12t-56.5 24t-64 12q-45 0 -72 -17t-50 -31z" />
    <glyph glyph-name="uni1EC5" unicode="&#x1ec5;" horiz-adv-x="1050" 
d="M471 -20q-126 0 -213 61.5t-124.5 179.5t-13.5 287q24 171 90 293.5t167.5 187.5t233.5 65q124 0 203.5 -59t110.5 -170.5t8 -270.5l-7 -56h-729q-16 -117 6 -217.5t90 -162.5t189 -62q114 0 203 59t120 161h78q-33 -100 -97.5 -166t-146.5 -98t-168 -32zM209 574h650
q17 115 -4.5 206.5t-84.5 144.5t-171 53q-118 0 -200 -60.5t-129.5 -153.5t-60.5 -190zM381 1155l246 190h58l190 -190h-112l-118 120l-160 -120h-104zM456 1463l-14 60q32 27 63.5 44.5t74.5 17.5q39 0 70.5 -12.5t63.5 -25t72 -12.5q35 0 58.5 11.5t51.5 30.5l18 -68
q-21 -13 -53.5 -29.5t-86.5 -16.5q-46 0 -75.5 12t-56.5 24t-64 12q-45 0 -72 -17t-50 -31z" />
    <glyph glyph-name="uni1EC6" unicode="&#x1ec6;" horiz-adv-x="1150" 
d="M147 0l204 1446h764l-12 -80h-692l-84 -594h644l-10 -82h-644l-86 -606l718 -2l-12 -82h-790zM463 -320l16 120h88l-16 -120h-88zM485 1567l246 190h58l190 -190h-112l-118 120l-160 -120h-104z" />
    <glyph glyph-name="uni1EC7" unicode="&#x1ec7;" horiz-adv-x="1050" 
d="M471 -20q-126 0 -213 61.5t-124.5 179.5t-13.5 287q24 171 90 293.5t167.5 187.5t233.5 65q124 0 203.5 -59t110.5 -170.5t8 -270.5l-7 -56h-729q-16 -117 6 -217.5t90 -162.5t189 -62q114 0 203 59t120 161h78q-33 -100 -97.5 -166t-146.5 -98t-168 -32zM209 574h650
q17 115 -4.5 206.5t-84.5 144.5t-171 53q-118 0 -200 -60.5t-129.5 -153.5t-60.5 -190zM383 -320l16 120h88l-16 -120h-88zM379 1155l246 190h58l190 -190h-112l-118 120l-160 -120h-104z" />
    <glyph glyph-name="uni1EC8" unicode="&#x1ec8;" horiz-adv-x="514" 
d="M149 0l202 1446h72l-202 -1446h-72zM451 1542l-28 60q47 30 71.5 69t10.5 73q-15 36 -57 33t-89 -33l-28 62q80 50 145 43t91 -63q32 -66 -3 -131t-113 -113z" />
    <glyph glyph-name="uni1EC9" unicode="&#x1ec9;" horiz-adv-x="433" 
d="M108 0l145 1034h73l-146 -1034h-72zM350 1130l-28 60q47 30 71.5 69t10.5 73q-15 36 -57 33t-89 -33l-28 62q80 50 145 43t91 -63q32 -66 -3 -131t-113 -113z" />
    <glyph glyph-name="uni1ECA" unicode="&#x1eca;" horiz-adv-x="514" 
d="M149 0l202 1446h72l-202 -1446h-72zM99 -320l16 120h88l-16 -120h-88z" />
    <glyph glyph-name="uni1ECB" unicode="&#x1ecb;" horiz-adv-x="451" 
d="M115 0l146 1034h73l-145 -1034h-74zM295 1326l16 120h88l-16 -120h-88zM65 -320l16 120h88l-16 -120h-88z" />
    <glyph glyph-name="uni1ECC" unicode="&#x1ecc;" horiz-adv-x="1329" 
d="M591 -20q-170 0 -279.5 84t-151 248t-7.5 404q34 244 123 411t222.5 253t302.5 86q168 0 276 -85t149 -251.5t7 -409.5q-34 -241 -121.5 -406t-220 -249.5t-300.5 -84.5zM605 62q148 0 260 72t184.5 218t103.5 368q31 223 -1 370.5t-123.5 220.5t-239.5 73
q-222 0 -364.5 -165.5t-189.5 -498.5q-31 -221 2 -367t126 -218.5t242 -72.5zM509 -320l16 120h88l-16 -120h-88z" />
    <glyph glyph-name="uni1ECD" unicode="&#x1ecd;" horiz-adv-x="1044" 
d="M455 -20q-124 0 -210 58t-122.5 176.5t-12.5 299.5q21 162 81.5 283.5t161.5 189t242 67.5q123 0 207 -58.5t120 -178t12 -303.5q-21 -160 -81 -280t-159 -187t-239 -67zM465 54q100 0 181.5 50t137 152t75.5 258q18 139 -4.5 243.5t-89 162.5t-180.5 58
q-102 0 -184.5 -50t-138 -153t-76.5 -261q-18 -138 5 -241.5t91 -161t183 -57.5zM338 -320l16 120h88l-16 -120h-88z" />
    <glyph glyph-name="uni1ECE" unicode="&#x1ece;" horiz-adv-x="1329" 
d="M591 -20q-170 0 -279.5 84t-151 248t-7.5 404q34 244 123 411t222.5 253t302.5 86q168 0 276 -85t149 -251.5t7 -409.5q-34 -241 -121.5 -406t-220 -249.5t-300.5 -84.5zM605 62q148 0 260 72t184.5 218t103.5 368q31 223 -1 370.5t-123.5 220.5t-239.5 73
q-222 0 -364.5 -165.5t-189.5 -498.5q-31 -221 2 -367t126 -218.5t242 -72.5zM863 1542l-28 60q47 30 71.5 69t10.5 73q-15 36 -57 33t-89 -33l-28 62q80 50 145 43t91 -63q32 -66 -3 -131t-113 -113z" />
    <glyph glyph-name="uni1ECF" unicode="&#x1ecf;" horiz-adv-x="1044" 
d="M455 -20q-124 0 -210 58t-122.5 176.5t-12.5 299.5q21 162 81.5 283.5t161.5 189t242 67.5q123 0 207 -58.5t120 -178t12 -303.5q-21 -160 -81 -280t-159 -187t-239 -67zM465 54q100 0 181.5 50t137 152t75.5 258q18 139 -4.5 243.5t-89 162.5t-180.5 58
q-102 0 -184.5 -50t-138 -153t-76.5 -261q-18 -138 5 -241.5t91 -161t183 -57.5zM623 1130l-28 60q47 30 71.5 69t10.5 73q-15 36 -57 33t-89 -33l-28 62q80 50 145 43t91 -63q32 -66 -3 -131t-113 -113z" />
    <glyph glyph-name="uni1ED0" unicode="&#x1ed0;" horiz-adv-x="1329" 
d="M591 -20q-170 0 -279.5 84t-151 248t-7.5 404q34 244 123 411t222.5 253t302.5 86q168 0 276 -85t149 -251.5t7 -409.5q-34 -241 -121.5 -406t-220 -249.5t-300.5 -84.5zM605 62q148 0 260 72t184.5 218t103.5 368q31 223 -1 370.5t-123.5 220.5t-239.5 73
q-222 0 -364.5 -165.5t-189.5 -498.5q-31 -221 2 -367t126 -218.5t242 -72.5zM583 1567l246 190h58l190 -190h-112l-118 120l-160 -120h-104zM981 1727l111 204h120l-156 -204h-75z" />
    <glyph glyph-name="uni1ED1" unicode="&#x1ed1;" horiz-adv-x="1044" 
d="M455 -20q-124 0 -210 58t-122.5 176.5t-12.5 299.5q21 162 81.5 283.5t161.5 189t242 67.5q123 0 207 -58.5t120 -178t12 -303.5q-21 -160 -81 -280t-159 -187t-239 -67zM465 54q100 0 181.5 50t137 152t75.5 258q18 139 -4.5 243.5t-89 162.5t-180.5 58
q-102 0 -184.5 -50t-138 -153t-76.5 -261q-18 -138 5 -241.5t91 -161t183 -57.5zM343 1155l246 190h58l190 -190h-112l-118 120l-160 -120h-104zM741 1315l111 204h120l-156 -204h-75z" />
    <glyph glyph-name="uni1ED2" unicode="&#x1ed2;" horiz-adv-x="1329" 
d="M591 -20q-170 0 -279.5 84t-151 248t-7.5 404q34 244 123 411t222.5 253t302.5 86q168 0 276 -85t149 -251.5t7 -409.5q-34 -241 -121.5 -406t-220 -249.5t-300.5 -84.5zM605 62q148 0 260 72t184.5 218t103.5 368q31 223 -1 370.5t-123.5 220.5t-239.5 73
q-222 0 -364.5 -165.5t-189.5 -498.5q-31 -221 2 -367t126 -218.5t242 -72.5zM577 1567l246 190h58l190 -190h-112l-118 120l-160 -120h-104zM1033 1725l-134 204h118l89 -204h-73z" />
    <glyph glyph-name="uni1ED3" unicode="&#x1ed3;" horiz-adv-x="1044" 
d="M455 -20q-124 0 -210 58t-122.5 176.5t-12.5 299.5q21 162 81.5 283.5t161.5 189t242 67.5q123 0 207 -58.5t120 -178t12 -303.5q-21 -160 -81 -280t-159 -187t-239 -67zM465 54q100 0 181.5 50t137 152t75.5 258q18 139 -4.5 243.5t-89 162.5t-180.5 58
q-102 0 -184.5 -50t-138 -153t-76.5 -261q-18 -138 5 -241.5t91 -161t183 -57.5zM337 1155l246 190h58l190 -190h-112l-118 120l-160 -120h-104zM793 1313l-134 204h118l89 -204h-73z" />
    <glyph glyph-name="uni1ED4" unicode="&#x1ed4;" horiz-adv-x="1329" 
d="M591 -20q-170 0 -279.5 84t-151 248t-7.5 404q34 244 123 411t222.5 253t302.5 86q168 0 276 -85t149 -251.5t7 -409.5q-34 -241 -121.5 -406t-220 -249.5t-300.5 -84.5zM605 62q148 0 260 72t184.5 218t103.5 368q31 223 -1 370.5t-123.5 220.5t-239.5 73
q-222 0 -364.5 -165.5t-189.5 -498.5q-31 -221 2 -367t126 -218.5t242 -72.5zM557 1567l246 190h58l190 -190h-112l-118 120l-160 -120h-104zM984 1662l-28 60q47 30 71.5 69t10.5 73q-15 36 -57 33t-89 -33l-28 62q80 50 145 43t91 -63q32 -66 -3 -131t-113 -113z" />
    <glyph glyph-name="uni1ED5" unicode="&#x1ed5;" horiz-adv-x="1044" 
d="M455 -20q-124 0 -210 58t-122.5 176.5t-12.5 299.5q21 162 81.5 283.5t161.5 189t242 67.5q123 0 207 -58.5t120 -178t12 -303.5q-21 -160 -81 -280t-159 -187t-239 -67zM465 54q100 0 181.5 50t137 152t75.5 258q18 139 -4.5 243.5t-89 162.5t-180.5 58
q-102 0 -184.5 -50t-138 -153t-76.5 -261q-18 -138 5 -241.5t91 -161t183 -57.5zM317 1155l246 190h58l190 -190h-112l-118 120l-160 -120h-104zM744 1250l-28 60q47 30 71.5 69t10.5 73q-15 36 -57 33t-89 -33l-28 62q80 50 145 43t91 -63q32 -66 -3 -131t-113 -113z" />
    <glyph glyph-name="uni1ED6" unicode="&#x1ed6;" horiz-adv-x="1329" 
d="M591 -20q-170 0 -279.5 84t-151 248t-7.5 404q34 244 123 411t222.5 253t302.5 86q168 0 276 -85t149 -251.5t7 -409.5q-34 -241 -121.5 -406t-220 -249.5t-300.5 -84.5zM605 62q148 0 260 72t184.5 218t103.5 368q31 223 -1 370.5t-123.5 220.5t-239.5 73
q-222 0 -364.5 -165.5t-189.5 -498.5q-31 -221 2 -367t126 -218.5t242 -72.5zM573 1567l246 190h58l190 -190h-112l-118 120l-160 -120h-104zM648 1875l-14 60q32 27 63.5 44.5t74.5 17.5q39 0 70.5 -12.5t63.5 -25t72 -12.5q35 0 58.5 11.5t51.5 30.5l18 -68
q-21 -13 -53.5 -29.5t-86.5 -16.5q-46 0 -75.5 12t-56.5 24t-64 12q-45 0 -72 -17t-50 -31z" />
    <glyph glyph-name="uni1ED7" unicode="&#x1ed7;" horiz-adv-x="1044" 
d="M455 -20q-124 0 -210 58t-122.5 176.5t-12.5 299.5q21 162 81.5 283.5t161.5 189t242 67.5q123 0 207 -58.5t120 -178t12 -303.5q-21 -160 -81 -280t-159 -187t-239 -67zM465 54q100 0 181.5 50t137 152t75.5 258q18 139 -4.5 243.5t-89 162.5t-180.5 58
q-102 0 -184.5 -50t-138 -153t-76.5 -261q-18 -138 5 -241.5t91 -161t183 -57.5zM333 1155l246 190h58l190 -190h-112l-118 120l-160 -120h-104zM408 1463l-14 60q32 27 63.5 44.5t74.5 17.5q39 0 70.5 -12.5t63.5 -25t72 -12.5q35 0 58.5 11.5t51.5 30.5l18 -68
q-21 -13 -53.5 -29.5t-86.5 -16.5q-46 0 -75.5 12t-56.5 24t-64 12q-45 0 -72 -17t-50 -31z" />
    <glyph glyph-name="uni1ED8" unicode="&#x1ed8;" horiz-adv-x="1329" 
d="M591 -20q-170 0 -279.5 84t-151 248t-7.5 404q34 244 123 411t222.5 253t302.5 86q168 0 276 -85t149 -251.5t7 -409.5q-34 -241 -121.5 -406t-220 -249.5t-300.5 -84.5zM605 62q148 0 260 72t184.5 218t103.5 368q31 223 -1 370.5t-123.5 220.5t-239.5 73
q-222 0 -364.5 -165.5t-189.5 -498.5q-31 -221 2 -367t126 -218.5t242 -72.5zM509 -320l16 120h88l-16 -120h-88zM571 1567l246 190h58l190 -190h-112l-118 120l-160 -120h-104z" />
    <glyph glyph-name="uni1ED9" unicode="&#x1ed9;" horiz-adv-x="1044" 
d="M455 -20q-124 0 -210 58t-122.5 176.5t-12.5 299.5q21 162 81.5 283.5t161.5 189t242 67.5q123 0 207 -58.5t120 -178t12 -303.5q-21 -160 -81 -280t-159 -187t-239 -67zM465 54q100 0 181.5 50t137 152t75.5 258q18 139 -4.5 243.5t-89 162.5t-180.5 58
q-102 0 -184.5 -50t-138 -153t-76.5 -261q-18 -138 5 -241.5t91 -161t183 -57.5zM338 -320l16 120h88l-16 -120h-88zM331 1155l246 190h58l190 -190h-112l-118 120l-160 -120h-104z" />
    <glyph glyph-name="uni1EDA" unicode="&#x1eda;" horiz-adv-x="1419" 
d="M591 -20q-170 0 -279.5 84t-151 248t-7.5 404q34 244 123 411t222.5 253t302.5 86q123 0 214 -46t148 -135q50 0 83 16t54 56.5t33 112.5h87q-11 -84 -39.5 -140.5t-73.5 -86.5t-107 -33q37 -91 46 -214t-13 -276q-34 -241 -121.5 -406t-220 -249.5t-300.5 -84.5zM605 62
q148 0 260 72t184.5 218t103.5 368q31 223 -1 370.5t-123.5 220.5t-239.5 73q-222 0 -364.5 -165.5t-189.5 -498.5q-31 -221 2 -367t126 -218.5t242 -72.5zM757 1567l228 291h113l-270 -291h-71z" />
    <glyph glyph-name="uni1EDB" unicode="&#x1edb;" horiz-adv-x="1079" 
d="M574 1155l228 291h113l-270 -291h-71zM455 -20q-124 0 -210 58t-122.5 176.5t-12.5 299.5q21 162 81.5 283.5t161.5 189t242 67.5q89 0 159 -31t115 -94q73 0 111.5 39t55.5 146h87q-17 -124 -70.5 -189t-143.5 -71q25 -64 32 -148.5t-7 -191.5q-21 -160 -81 -280
t-159 -187t-239 -67zM465 54q100 0 181.5 50t137 152t75.5 258q18 139 -4.5 243.5t-89 162.5t-180.5 58q-102 0 -184.5 -50t-138 -153t-76.5 -261q-18 -138 5 -241.5t91 -161t183 -57.5z" />
    <glyph glyph-name="uni1EDC" unicode="&#x1edc;" horiz-adv-x="1419" 
d="M591 -20q-170 0 -279.5 84t-151 248t-7.5 404q34 244 123 411t222.5 253t302.5 86q123 0 214 -46t148 -135q50 0 83 16t54 56.5t33 112.5h87q-11 -84 -39.5 -140.5t-73.5 -86.5t-107 -33q37 -91 46 -214t-13 -276q-34 -241 -121.5 -406t-220 -249.5t-300.5 -84.5zM605 62
q148 0 260 72t184.5 218t103.5 368q31 223 -1 370.5t-123.5 220.5t-239.5 73q-222 0 -364.5 -165.5t-189.5 -498.5q-31 -221 2 -367t126 -218.5t242 -72.5zM796 1567l-200 291h103l158 -291h-61z" />
    <glyph glyph-name="uni1EDD" unicode="&#x1edd;" horiz-adv-x="1079" 
d="M583 1155l-200 291h103l158 -291h-61zM455 -20q-124 0 -210 58t-122.5 176.5t-12.5 299.5q21 162 81.5 283.5t161.5 189t242 67.5q89 0 159 -31t115 -94q73 0 111.5 39t55.5 146h87q-17 -124 -70.5 -189t-143.5 -71q25 -64 32 -148.5t-7 -191.5q-21 -160 -81 -280
t-159 -187t-239 -67zM465 54q100 0 181.5 50t137 152t75.5 258q18 139 -4.5 243.5t-89 162.5t-180.5 58q-102 0 -184.5 -50t-138 -153t-76.5 -261q-18 -138 5 -241.5t91 -161t183 -57.5z" />
    <glyph glyph-name="uni1EDE" unicode="&#x1ede;" horiz-adv-x="1419" 
d="M591 -20q-170 0 -279.5 84t-151 248t-7.5 404q34 244 123 411t222.5 253t302.5 86q123 0 214 -46t148 -135q50 0 83 16t54 56.5t33 112.5h87q-11 -84 -39.5 -140.5t-73.5 -86.5t-107 -33q37 -91 46 -214t-13 -276q-34 -241 -121.5 -406t-220 -249.5t-300.5 -84.5zM605 62
q148 0 260 72t184.5 218t103.5 368q31 223 -1 370.5t-123.5 220.5t-239.5 73q-222 0 -364.5 -165.5t-189.5 -498.5q-31 -221 2 -367t126 -218.5t242 -72.5zM863 1542l-28 60q47 30 71.5 69t10.5 73q-15 36 -57 33t-89 -33l-28 62q80 50 145 43t91 -63q32 -66 -3 -131
t-113 -113z" />
    <glyph glyph-name="uni1EDF" unicode="&#x1edf;" horiz-adv-x="1079" 
d="M659 1130l-28 60q47 30 71.5 69t10.5 73q-15 36 -57 33t-89 -33l-28 62q80 50 145 43t91 -63q32 -66 -3 -131t-113 -113zM455 -20q-124 0 -210 58t-122.5 176.5t-12.5 299.5q21 162 81.5 283.5t161.5 189t242 67.5q89 0 159 -31t115 -94q73 0 111.5 39t55.5 146h87
q-17 -124 -70.5 -189t-143.5 -71q25 -64 32 -148.5t-7 -191.5q-21 -160 -81 -280t-159 -187t-239 -67zM465 54q100 0 181.5 50t137 152t75.5 258q18 139 -4.5 243.5t-89 162.5t-180.5 58q-102 0 -184.5 -50t-138 -153t-76.5 -261q-18 -138 5 -241.5t91 -161t183 -57.5z" />
    <glyph glyph-name="uni1EE0" unicode="&#x1ee0;" horiz-adv-x="1419" 
d="M591 -20q-170 0 -279.5 84t-151 248t-7.5 404q34 244 123 411t222.5 253t302.5 86q123 0 214 -46t148 -135q50 0 83 16t54 56.5t33 112.5h87q-11 -84 -39.5 -140.5t-73.5 -86.5t-107 -33q37 -91 46 -214t-13 -276q-34 -241 -121.5 -406t-220 -249.5t-300.5 -84.5zM605 62
q148 0 260 72t184.5 218t103.5 368q31 223 -1 370.5t-123.5 220.5t-239.5 73q-222 0 -364.5 -165.5t-189.5 -498.5q-31 -221 2 -367t126 -218.5t242 -72.5zM618 1661l-14 60q32 27 63.5 44.5t74.5 17.5q39 0 70.5 -12.5t63.5 -25t72 -12.5q35 0 58.5 11.5t51.5 30.5l18 -68
q-21 -13 -53.5 -29.5t-86.5 -16.5q-46 0 -75.5 12t-56.5 24t-64 12q-45 0 -72 -17t-50 -31z" />
    <glyph glyph-name="uni1EE1" unicode="&#x1ee1;" horiz-adv-x="1079" 
d="M415 1249l-14 60q32 27 63.5 44.5t74.5 17.5q39 0 70.5 -12.5t63.5 -25t72 -12.5q35 0 58.5 11.5t51.5 30.5l18 -68q-21 -13 -53.5 -29.5t-86.5 -16.5q-46 0 -75.5 12t-56.5 24t-64 12q-45 0 -72 -17t-50 -31zM455 -20q-124 0 -210 58t-122.5 176.5t-12.5 299.5
q21 162 81.5 283.5t161.5 189t242 67.5q89 0 159 -31t115 -94q73 0 111.5 39t55.5 146h87q-17 -124 -70.5 -189t-143.5 -71q25 -64 32 -148.5t-7 -191.5q-21 -160 -81 -280t-159 -187t-239 -67zM465 54q100 0 181.5 50t137 152t75.5 258q18 139 -4.5 243.5t-89 162.5
t-180.5 58q-102 0 -184.5 -50t-138 -153t-76.5 -261q-18 -138 5 -241.5t91 -161t183 -57.5z" />
    <glyph glyph-name="uni1EE2" unicode="&#x1ee2;" horiz-adv-x="1419" 
d="M591 -20q-170 0 -279.5 84t-151 248t-7.5 404q34 244 123 411t222.5 253t302.5 86q123 0 214 -46t148 -135q50 0 83 16t54 56.5t33 112.5h87q-11 -84 -39.5 -140.5t-73.5 -86.5t-107 -33q37 -91 46 -214t-13 -276q-34 -241 -121.5 -406t-220 -249.5t-300.5 -84.5zM605 62
q148 0 260 72t184.5 218t103.5 368q31 223 -1 370.5t-123.5 220.5t-239.5 73q-222 0 -364.5 -165.5t-189.5 -498.5q-31 -221 2 -367t126 -218.5t242 -72.5zM509 -320l16 120h88l-16 -120h-88z" />
    <glyph glyph-name="uni1EE3" unicode="&#x1ee3;" horiz-adv-x="1079" 
d="M359 -320l16 120h88l-16 -120h-88zM455 -20q-124 0 -210 58t-122.5 176.5t-12.5 299.5q21 162 81.5 283.5t161.5 189t242 67.5q89 0 159 -31t115 -94q73 0 111.5 39t55.5 146h87q-17 -124 -70.5 -189t-143.5 -71q25 -64 32 -148.5t-7 -191.5q-21 -160 -81 -280t-159 -187
t-239 -67zM465 54q100 0 181.5 50t137 152t75.5 258q18 139 -4.5 243.5t-89 162.5t-180.5 58q-102 0 -184.5 -50t-138 -153t-76.5 -261q-18 -138 5 -241.5t91 -161t183 -57.5z" />
    <glyph glyph-name="uni1EE4" unicode="&#x1ee4;" horiz-adv-x="1277" 
d="M585 -20q-151 0 -241 53.5t-121.5 164t-7.5 280.5l136 968h78l-140 -1002q-18 -126 9 -212.5t101 -131t196 -44.5q185 0 291 98t133 290l140 1002h71l-139 -998q-22 -157 -85 -261t-168 -155.5t-253 -51.5zM497 -316l16 120h88l-16 -120h-88z" />
    <glyph glyph-name="uni1EE5" unicode="&#x1ee5;" horiz-adv-x="1074" 
d="M456 -20q-83 1 -148 24t-107.5 68t-59.5 113.5t-4 160.5l96 688h73l-97 -688q-19 -130 42 -210t211 -80q133 0 224.5 75t113.5 231l95 672h72l-146 -1034h-66l21 190q-26 -64 -71 -111.5t-107.5 -73.5t-141.5 -25zM368 -320l16 120h88l-16 -120h-88z" />
    <glyph glyph-name="uni1EE6" unicode="&#x1ee6;" horiz-adv-x="1277" 
d="M585 -20q-151 0 -241 53.5t-121.5 164t-7.5 280.5l136 968h78l-140 -1002q-18 -126 9 -212.5t101 -131t196 -44.5q185 0 291 98t133 290l140 1002h71l-139 -998q-22 -157 -85 -261t-168 -155.5t-253 -51.5zM855 1542l-28 60q47 30 71.5 69t10.5 73q-15 36 -57 33t-89 -33
l-28 62q80 50 145 43t91 -63q32 -66 -3 -131t-113 -113z" />
    <glyph glyph-name="uni1EE7" unicode="&#x1ee7;" horiz-adv-x="1074" 
d="M456 -20q-83 1 -148 24t-107.5 68t-59.5 113.5t-4 160.5l96 688h73l-97 -688q-19 -130 42 -210t211 -80q133 0 224.5 75t113.5 231l95 672h72l-146 -1034h-66l21 190q-26 -64 -71 -111.5t-107.5 -73.5t-141.5 -25zM663 1130l-28 60q47 30 71.5 69t10.5 73q-15 36 -57 33
t-89 -33l-28 62q80 50 145 43t91 -63q32 -66 -3 -131t-113 -113z" />
    <glyph glyph-name="uni1EE8" unicode="&#x1ee8;" horiz-adv-x="1424" 
d="M1170 1211l11 73q38 -1 67 7.5t49.5 29.5t34.5 57t23 91h87q-13 -95 -47.5 -155.5t-90.5 -86t-134 -16.5zM585 -20q-151 0 -241 53.5t-121.5 164t-7.5 280.5l136 968h78l-140 -1002q-18 -126 9 -212.5t101 -131t196 -44.5q185 0 291 98t133 290l140 1002h71l-139 -998
q-22 -157 -85 -261t-168 -155.5t-253 -51.5zM769 1567l228 291h113l-270 -291h-71z" />
    <glyph glyph-name="uni1EE9" unicode="&#x1ee9;" horiz-adv-x="1095" 
d="M907 856l11 73q38 -1 67 7.5t49.5 29.5t34.5 57t23 91h87q-13 -95 -47.5 -155.5t-90.5 -86t-134 -16.5zM457 -20q-83 1 -148 24t-107.5 68t-59.5 113.5t-4 160.5l96 688h73l-97 -688q-19 -130 42 -210t211 -80q133 0 224.5 75t113.5 231l95 672h72l-146 -1034h-66l21 190
q-26 -64 -71 -111.5t-107.5 -73.5t-141.5 -25zM575 1155l228 291h113l-270 -291h-71z" />
    <glyph glyph-name="uni1EEA" unicode="&#x1eea;" horiz-adv-x="1424" 
d="M1170 1211l11 73q38 -1 67 7.5t49.5 29.5t34.5 57t23 91h87q-13 -95 -47.5 -155.5t-90.5 -86t-134 -16.5zM585 -20q-151 0 -241 53.5t-121.5 164t-7.5 280.5l136 968h78l-140 -1002q-18 -126 9 -212.5t101 -131t196 -44.5q185 0 291 98t133 290l140 1002h71l-139 -998
q-22 -157 -85 -261t-168 -155.5t-253 -51.5zM788 1567l-200 291h103l158 -291h-61z" />
    <glyph glyph-name="uni1EEB" unicode="&#x1eeb;" horiz-adv-x="1110" 
d="M597 1155l-200 291h103l158 -291h-61zM457 -20q-83 1 -148 24t-108 68t-59.5 113.5t-3.5 160.5l96 688h73l-97 -688q-19 -130 42 -210t211 -80q133 0 224.5 75t113.5 231l95 672h72l-15 -105q44 2 74.5 20t49.5 57.5t30 107.5h87q-12 -90 -44 -149.5t-83.5 -87
t-123.5 -23.5l-121 -854h-66l21 190q-26 -64 -71 -111.5t-107.5 -73.5t-141.5 -25z" />
    <glyph glyph-name="uni1EEC" unicode="&#x1eec;" horiz-adv-x="1424" 
d="M1170 1211l11 73q38 -1 67 7.5t49.5 29.5t34.5 57t23 91h87q-13 -95 -47.5 -155.5t-90.5 -86t-134 -16.5zM585 -20q-151 0 -241 53.5t-121.5 164t-7.5 280.5l136 968h78l-140 -1002q-18 -126 9 -212.5t101 -131t196 -44.5q185 0 291 98t133 290l140 1002h71l-139 -998
q-22 -157 -85 -261t-168 -155.5t-253 -51.5zM855 1543l-28 60q47 30 71.5 69t10.5 73q-15 36 -57 33t-89 -33l-28 62q80 50 145 43t91 -63q32 -66 -3 -131t-113 -113z" />
    <glyph glyph-name="uni1EED" unicode="&#x1eed;" horiz-adv-x="1110" 
d="M673 1130l-28 60q47 30 71.5 69t10.5 73q-15 36 -57 33t-89 -33l-28 62q80 50 145 43t91 -63q32 -66 -3 -131t-113 -113zM457 -20q-83 1 -148 24t-108 68t-59.5 113.5t-3.5 160.5l96 688h73l-97 -688q-19 -130 42 -210t211 -80q133 0 224.5 75t113.5 231l95 672h72
l-15 -105q44 2 74.5 20t49.5 57.5t30 107.5h87q-12 -90 -44 -149.5t-83.5 -87t-123.5 -23.5l-121 -854h-66l21 190q-26 -64 -71 -111.5t-107.5 -73.5t-141.5 -25z" />
    <glyph glyph-name="uni1EEE" unicode="&#x1eee;" horiz-adv-x="1424" 
d="M1170 1211l11 73q38 -1 67 7.5t49.5 29.5t34.5 57t23 91h87q-13 -95 -47.5 -155.5t-90.5 -86t-134 -16.5zM585 -20q-151 0 -241 53.5t-121.5 164t-7.5 280.5l136 968h78l-140 -1002q-18 -126 9 -212.5t101 -131t196 -44.5q185 0 291 98t133 290l140 1002h71l-139 -998
q-22 -157 -85 -261t-168 -155.5t-253 -51.5zM611 1661l-14 60q32 27 63.5 44.5t74.5 17.5q39 0 70.5 -12.5t63.5 -25t72 -12.5q35 0 58.5 11.5t51.5 30.5l18 -68q-21 -13 -53.5 -29.5t-86.5 -16.5q-46 0 -75.5 12t-56.5 24t-64 12q-45 0 -72 -17t-50 -31z" />
    <glyph glyph-name="uni1EEF" unicode="&#x1eef;" horiz-adv-x="1110" 
d="M429 1249l-14 60q32 27 63.5 44.5t74.5 17.5q39 0 70.5 -12.5t63.5 -25t72 -12.5q35 0 58.5 11.5t51.5 30.5l18 -68q-21 -13 -53.5 -29.5t-86.5 -16.5q-46 0 -75.5 12t-56.5 24t-64 12q-45 0 -72 -17t-50 -31zM457 -20q-83 1 -148 24t-108 68t-59.5 113.5t-3.5 160.5
l96 688h73l-97 -688q-19 -130 42 -210t211 -80q133 0 224.5 75t113.5 231l95 672h72l-15 -105q44 2 74.5 20t49.5 57.5t30 107.5h87q-12 -90 -44 -149.5t-83.5 -87t-123.5 -23.5l-121 -854h-66l21 190q-26 -64 -71 -111.5t-107.5 -73.5t-141.5 -25z" />
    <glyph glyph-name="uni1EF0" unicode="&#x1ef0;" horiz-adv-x="1424" 
d="M1170 1211l11 73q38 -1 67 7.5t49.5 29.5t34.5 57t23 91h87q-13 -95 -47.5 -155.5t-90.5 -86t-134 -16.5zM585 -20q-151 0 -241 53.5t-121.5 164t-7.5 280.5l136 968h78l-140 -1002q-18 -126 9 -212.5t101 -131t196 -44.5q185 0 291 98t133 290l140 1002h71l-139 -998
q-22 -157 -85 -261t-168 -155.5t-253 -51.5zM492 -316l16 120h88l-16 -120h-88z" />
    <glyph glyph-name="uni1EF1" unicode="&#x1ef1;" horiz-adv-x="1110" 
d="M373 -320l16 120h88l-16 -120h-88zM457 -20q-83 1 -148 24t-108 68t-59.5 113.5t-3.5 160.5l96 688h73l-97 -688q-19 -130 42 -210t211 -80q133 0 224.5 75t113.5 231l95 672h72l-15 -105q44 2 74.5 20t49.5 57.5t30 107.5h87q-12 -90 -44 -149.5t-83.5 -87t-123.5 -23.5
l-121 -854h-66l21 190q-26 -64 -71 -111.5t-107.5 -73.5t-141.5 -25z" />
    <glyph glyph-name="Ygrave" unicode="&#x1ef2;" horiz-adv-x="1012" 
d="M402 0l86 624l-328 822h80l296 -744l498 744h80l-553 -824l-88 -622h-71zM633 1571l-200 291h103l158 -291h-61z" />
    <glyph glyph-name="ygrave" unicode="&#x1ef3;" horiz-adv-x="944" 
d="M93 -330q-69 0 -90.5 8l-21.5 8l8 54h102q59 0 99 17t66.5 46t44.5 65l68 138l-228 1028h78l204 -922l456 922h70l-582 -1184q-33 -65 -75 -104.5t-92 -57.5t-107 -18zM546 1155l-200 291h103l158 -291h-61z" />
    <glyph glyph-name="uni1EF4" unicode="&#x1ef4;" horiz-adv-x="1012" 
d="M402 0l86 624l-328 822h80l296 -744l498 744h80l-553 -824l-88 -622h-71zM350 -320l16 120h88l-16 -120h-88z" />
    <glyph glyph-name="uni1EF5" unicode="&#x1ef5;" horiz-adv-x="944" 
d="M93 -330q-69 0 -90.5 8l-21.5 8l8 54h102q59 0 99 17t66.5 46t44.5 65l68 138l-228 1028h78l204 -922l456 922h70l-582 -1184q-33 -65 -75 -104.5t-92 -57.5t-107 -18zM558 -336l16 120h88l-16 -120h-88z" />
    <glyph glyph-name="uni1EF6" unicode="&#x1ef6;" horiz-adv-x="1012" 
d="M402 0l86 624l-328 822h80l296 -744l498 744h80l-553 -824l-88 -622h-71zM700 1546l-28 60q47 30 71.5 69t10.5 73q-15 36 -57 33t-89 -33l-28 62q80 50 145 43t91 -63q32 -66 -3 -131t-113 -113z" />
    <glyph glyph-name="uni1EF7" unicode="&#x1ef7;" horiz-adv-x="944" 
d="M93 -330q-69 0 -90.5 8l-21.5 8l8 54h102q59 0 99 17t66.5 46t44.5 65l68 138l-228 1028h78l204 -922l456 922h70l-582 -1184q-33 -65 -75 -104.5t-92 -57.5t-107 -18zM613 1130l-28 60q47 30 71.5 69t10.5 73q-15 36 -57 33t-89 -33l-28 62q80 50 145 43t91 -63
q32 -66 -3 -131t-113 -113z" />
    <glyph glyph-name="uni1EF8" unicode="&#x1ef8;" horiz-adv-x="1012" 
d="M402 0l86 624l-328 822h80l296 -744l498 744h80l-553 -824l-88 -622h-71zM455 1665l-14 60q32 27 63.5 44.5t74.5 17.5q39 0 70.5 -12.5t63.5 -25t72 -12.5q35 0 58.5 11.5t51.5 30.5l18 -68q-21 -13 -53.5 -29.5t-86.5 -16.5q-46 0 -75.5 12t-56.5 24t-64 12
q-45 0 -72 -17t-50 -31z" />
    <glyph glyph-name="uni1EF9" unicode="&#x1ef9;" horiz-adv-x="944" 
d="M93 -330q-69 0 -90.5 8l-21.5 8l8 54h102q59 0 99 17t66.5 46t44.5 65l68 138l-228 1028h78l204 -922l456 922h70l-582 -1184q-33 -65 -75 -104.5t-92 -57.5t-107 -18zM368 1249l-14 60q32 27 63.5 44.5t74.5 17.5q39 0 70.5 -12.5t63.5 -25t72 -12.5q35 0 58.5 11.5
t51.5 30.5l18 -68q-21 -13 -53.5 -29.5t-86.5 -16.5q-46 0 -75.5 12t-56.5 24t-64 12q-45 0 -72 -17t-50 -31z" />
    <glyph glyph-name="endash" unicode="&#x2013;" horiz-adv-x="975" 
d="M121 466l10 78l720 2l-10 -78z" />
    <glyph glyph-name="emdash" unicode="&#x2014;" horiz-adv-x="2171" 
d="M374 466l11 78l1409 2l-11 -78z" />
    <glyph glyph-name="quoteleft" unicode="&#x2018;" horiz-adv-x="431" 
d="M221 1130l19 136l173 246h63l-136 -224h69l-22 -158h-166z" />
    <glyph glyph-name="quoteright" unicode="&#x2019;" horiz-adv-x="402" 
d="M177 1064l136 224h-69l22 158h166l-19 -136l-173 -246h-63z" />
    <glyph glyph-name="quotesinglbase" unicode="&#x201a;" horiz-adv-x="395" 
d="M-24 -222l127 222h-65l22 160h154l-18 -136l-160 -246h-60z" />
    <glyph glyph-name="quotedblleft" unicode="&#x201c;" horiz-adv-x="729" 
d="M515 1096l19 137l173 249h63l-136 -227h69l-22 -159h-166zM217 1096l19 137l173 249h63l-136 -227h69l-22 -159h-166z" />
    <glyph glyph-name="quotedblright" unicode="&#x201d;" horiz-adv-x="685" 
d="M460 1064l136 224h-69l22 158h166l-19 -136l-173 -246h-63zM177 1064l136 224h-69l22 158h166l-19 -136l-173 -246h-63z" />
    <glyph glyph-name="quotedblbase" unicode="&#x201e;" horiz-adv-x="687" 
d="M268 -222l127 222h-65l22 160h154l-18 -136l-160 -246h-60zM-24 -222l127 222h-65l22 160h154l-18 -136l-160 -246h-60z" />
    <glyph glyph-name="dagger" unicode="&#x2020;" horiz-adv-x="726" 
d="M199 -322l178 1150l-334 -12l12 92l326 -10l66 548h96l-90 -548l328 10l-14 -92l-330 12l-142 -1150h-96z" />
    <glyph glyph-name="daggerdbl" unicode="&#x2021;" horiz-adv-x="727" 
d="M200 -322l88 548l-330 -10l14 94l332 -14l74 532l-334 -12l12 92l326 -10l66 548h96l-90 -548l328 10l-14 -92l-330 12l-74 -532l334 14l-14 -94l-324 10l-64 -548h-96z" />
    <glyph glyph-name="bullet" unicode="&#x2022;" horiz-adv-x="563" 
d="M312 594q-39 0 -70.5 19t-50.5 51.5t-19 71.5t19 71t50.5 50.5t70.5 18.5t71 -18.5t50.5 -50.5t18.5 -71t-18.5 -71.5t-50.5 -51.5t-71 -19z" />
    <glyph glyph-name="ellipsis" unicode="&#x2026;" horiz-adv-x="1272" 
d="M967 0l22 154h112l-22 -154h-112zM47 0l22 154h112l-22 -154h-112zM507 0l22 154h112l-22 -154h-112z" />
    <glyph glyph-name="perthousand" unicode="&#x2030;" horiz-adv-x="2332" 
d="M314 -8h-71l1105 1470h69zM431 638q-73 0 -128 36t-85.5 105t-30.5 168q0 90 21.5 182t66 168.5t112.5 123.5t160 47q74 0 128 -35.5t84 -103.5t30 -167q0 -86 -20.5 -178t-64 -170.5t-111 -127t-162.5 -48.5zM437 696q75 0 129.5 45t89 115t51.5 147t17 142
q0 119 -43.5 192t-143.5 73q-73 0 -127 -44.5t-89.5 -114t-52.5 -146t-17 -139.5q0 -120 43 -195t143 -75zM1130 -20q-73 0 -128 36t-85.5 105t-30.5 168q0 90 21.5 182t66 168.5t112.5 123.5t160 47q74 0 128 -35.5t84 -103.5t30 -167q0 -86 -20.5 -178t-64 -170.5
t-111 -127t-162.5 -48.5zM1136 38q75 0 129.5 45t89 115t51.5 147t17 142q0 119 -43.5 192t-143.5 73q-73 0 -127 -44.5t-89.5 -114t-52.5 -146t-17 -139.5q0 -120 43 -195t143 -75zM1844 -20q-73 0 -128 36t-85.5 105t-30.5 168q0 90 21.5 182t66 168.5t112.5 123.5t160 47
q74 0 128 -35.5t84 -103.5t30 -167q0 -86 -20.5 -178t-64 -170.5t-111 -127t-162.5 -48.5zM1850 38q75 0 129.5 45t89 115t51.5 147t17 142q0 119 -43.5 192t-143.5 73q-73 0 -127 -44.5t-89.5 -114t-52.5 -146t-17 -139.5q0 -120 43 -195t143 -75z" />
    <glyph glyph-name="guilsinglleft" unicode="&#x2039;" horiz-adv-x="467" 
d="M272 152l-214 350l318 366h50l-272 -366l168 -350h-50z" />
    <glyph glyph-name="guilsinglright" unicode="&#x203a;" horiz-adv-x="465" 
d="M43 152l266 350l-170 366h50l214 -366l-314 -350h-46z" />
    <glyph glyph-name="fraction" unicode="&#x2044;" horiz-adv-x="371" 
d="M-296 -8h-71l1105 1470h69z" />
    <glyph glyph-name="uni2070" unicode="&#x2070;" horiz-adv-x="665" 
d="M337 752q-124 0 -183.5 114.5t-26.5 349.5q33 239 126 355.5t216 116.5q124 0 184 -115.5t27 -353.5q-34 -237 -126.5 -352t-216.5 -115zM346 804q105 0 176.5 98.5t102.5 316.5q31 220 -14 319t-149 99q-103 0 -177.5 -99.5t-105.5 -318.5q-30 -217 16.5 -316t150.5 -99
z" />
    <glyph glyph-name="uni2074" unicode="&#x2074;" horiz-adv-x="697" 
d="M457 760l37 263h-403l9 62l480 585h52l-82 -595h147l-7 -52h-149l-36 -263h-48zM148 1075h349l72 510z" />
    <glyph glyph-name="uni2075" unicode="&#x2075;" horiz-adv-x="695" 
d="M361 746q-109 0 -181.5 70t-82.5 183h54q14 -91 71.5 -147.5t148.5 -56.5q104 0 177 69t90 193q16 116 -42 181t-143 65q-64 0 -119 -20.5t-118 -97.5v0v0h-57l105 485h465l-7 -51h-416l-78 -368q45 56 105.5 79t126.5 23q68 0 125 -33t87.5 -98.5t16.5 -163.5
q-19 -139 -109.5 -225.5t-218.5 -86.5z" />
    <glyph glyph-name="uni2076" unicode="&#x2076;" horiz-adv-x="672" 
d="M356 756q-133 0 -197 119t-33 339q30 215 124 346.5t248 131.5q61 0 109 -25t77.5 -72t33.5 -114h-47q-8 71 -55 116.5t-125 45.5q-132 0 -216 -120.5t-110 -371.5q32 94 107 153.5t165 59.5q121 0 184 -77.5t43 -219.5q-12 -93 -53 -163t-106 -109t-149 -39zM366 808
q95 0 162.5 70.5t83.5 185.5q17 112 -25 180t-152 68q-57 0 -112 -29t-93.5 -79.5t-47.5 -115.5q-19 -118 31.5 -199t152.5 -81z" />
    <glyph glyph-name="uni2077" unicode="&#x2077;" horiz-adv-x="629" 
d="M204 760q32 93 97.5 235t158 305.5t205.5 318.5h-490l7 51h551l-9 -51q-75 -99 -149.5 -220.5t-139.5 -243.5t-112.5 -226t-68.5 -169h-50z" />
    <glyph glyph-name="uni2078" unicode="&#x2078;" horiz-adv-x="737" 
d="M373 754q-138 0 -210 70t-56 184q8 54 40.5 104.5t78.5 85.5t93 44q-60 26 -92 77.5t-21 130.5q17 114 102 177t197 63q113 0 179.5 -63t50.5 -177q-11 -79 -56.5 -130.5t-113.5 -77.5q45 -9 81 -44t55 -85.5t11 -104.5q-16 -114 -108 -184t-231 -70zM380 803
q114 0 190.5 55t89.5 147q13 90 -47.5 149t-175.5 59q-112 0 -189.5 -59t-90.5 -149q-13 -92 49 -147t174 -55zM445 1270q97 0 162 48t77 134q12 87 -39.5 137.5t-147.5 50.5q-94 0 -160.5 -51t-77.5 -137q-13 -86 39 -134t147 -48z" />
    <glyph glyph-name="uni2079" unicode="&#x2079;" horiz-adv-x="677" 
d="M317 756q-61 0 -110.5 24.5t-80 71.5t-35.5 113h48q8 -72 57.5 -116t127.5 -44q132 0 218.5 120.5t113.5 370.5q-31 -94 -106.5 -153.5t-164.5 -59.5q-121 0 -184 77.5t-44 219.5q13 93 53.5 163t105.5 109.5t150 39.5q131 0 195 -119.5t32 -339.5q-30 -214 -126 -345.5
t-250 -131.5zM386 1135q58 0 112.5 29t93 80t47.5 115q18 118 -32 200t-152 82q-94 0 -162 -71.5t-84 -186.5q-16 -112 25.5 -180t151.5 -68z" />
    <glyph glyph-name="colonmonetary" unicode="&#x20a1;" horiz-adv-x="1252" 
d="M589 -20q-173 0 -281 83.5t-147 248t-7 408.5q24 183 76 322.5t131.5 233.5t185 142t235.5 48q132 0 225 -61.5t141 -160.5t45 -210h-82q-5 94 -43.5 173.5t-111.5 128t-185 48.5t-202 -41.5t-157 -124t-111 -207t-66 -291.5q-43 -333 48 -495.5t316 -162.5
q112 0 197.5 48t144.5 127.5t89 173.5h82q-19 -82 -66 -159.5t-116 -138.5t-155.5 -97t-185.5 -36zM404 -122l320 1682h74l-320 -1682h-74zM608 -122l320 1682h74l-320 -1682h-74z" />
    <glyph glyph-name="franc" unicode="&#x20a3;" horiz-adv-x="1100" 
d="M117 0l202 1446h792l-12 -78h-708l-88 -624h656l-12 -78h-654l-94 -666h-82zM-21 294l10 74l588 2l-10 -74z" />
    <glyph glyph-name="lira" unicode="&#x20a4;" horiz-adv-x="1075" 
d="M-52 0l10 76h76q71 -1 135 82t89 260q2 17 3.5 37t4.5 47q-2 10 -14 10h-200l10 74h204l-4 220h-170l10 74h158l-2 42q-3 205 53.5 324t151.5 169.5t209 50.5q76 0 139 -28t104.5 -71t52.5 -89l-72 -38q-24 68 -77.5 105t-154.5 37q-117 0 -210.5 -72t-113.5 -204
q-3 -30 -3 -85.5t1 -124.5q0 -16 16 -16l330 2l-10 -74l-336 -2l4 -220l302 2l-12 -74h-290q-3 -71 -22 -151.5t-54 -155.5t-86 -129h392q99 0 170.5 36.5t117.5 129.5l62 -30q-57 -108 -149.5 -161t-212.5 -53h-612z" />
    <glyph glyph-name="uni20A6" unicode="&#x20a6;" horiz-adv-x="1271" 
d="M63 0l391 1446h54l389 -1290l348 1290h67l-391 -1446h-57l-386 1286l-349 -1286h-66zM16 554l10 74l1250 2l-10 -74zM60 866l10 74l1250 2l-10 -74z" />
    <glyph glyph-name="uni20A9" unicode="&#x20a9;" horiz-adv-x="1779" 
d="M304 0l47 1446h76l-51 -1348l688 1348h65l-42 -1348l688 1348h72l-742 -1446h-91l42 1296l-663 -1296h-89zM36 554l10 74l1728 2l-10 -74zM80 866l10 74l1728 2l-10 -74z" />
    <glyph glyph-name="dong" unicode="&#x20ab;" horiz-adv-x="894" 
d="M391 246q-93 0 -163.5 47t-103.5 141t-13 234q19 136 78 238.5t147 160t195 57.5q87 0 130.5 -31t73.5 -63q12 -12 15.5 -8.5t4.5 18.5l58 404h68l-166 -1182h-64l18 128q-16 -17 -50 -51.5t-90 -63.5t-138 -29zM53 0l8 68h636l-10 -68h-634zM415 322q69 0 127 33.5
t94.5 82t42.5 94.5l56 400q-42 54 -93 83t-117 29q-121 0 -213.5 -97t-116.5 -273q-17 -121 10 -199t83 -115.5t127 -37.5zM503 1238l10 68h462l-10 -68h-462z" />
    <glyph glyph-name="Euro" unicode="&#x20ac;" horiz-adv-x="1010" 
d="M587 -20q-174 0 -283.5 86.5t-150.5 251.5t-8 400q33 236 120 403.5t218.5 256t299.5 88.5q74 0 142.5 -25.5t123.5 -72.5l-62 -76q-42 41 -94 65.5t-118 24.5q-219 0 -357 -169t-185 -495q-29 -210 2 -356t123 -222t247 -76q43 0 84.5 9t80 25.5t73.5 39.5l34 -68
q-66 -42 -139.5 -66t-150.5 -24zM-37 534l10 74l678 2l-10 -74zM7 846l10 74l678 2l-10 -74z" />
    <glyph glyph-name="uni20B9" unicode="&#x20b9;" horiz-adv-x="972" 
d="M593 0l-142 712h-422l10 78h320q194 0 299 70.5t129 239.5q20 134 -50 201t-234 67h-382l10 78h384q194 0 290 -86.5t72 -257.5q-17 -119 -70 -193.5t-122 -115.5t-134 -61q-11 -4 -8 -14l140 -718h-90zM81 1060l10 74l938 2l-12 -74zM125 1372l10 74l936 2l-10 -74z" />
    <glyph glyph-name="uni20BA" unicode="&#x20ba;" horiz-adv-x="886" 
d="M115 0l204 1446h82l-192 -1368h112q141 0 251.5 84.5t206.5 283.5l74 -22q-45 -106 -104 -185.5t-129 -132.5t-147.5 -79.5t-159.5 -26.5h-198zM39 400l-14 84l544 204l18 -84zM85 726l-14 84l544 204l18 -84z" />
    <glyph glyph-name="uni2113" unicode="&#x2113;" horiz-adv-x="826" 
d="M368 -12q-121 0 -171 98.5t-28 295.5l-109 -76l-30 66l154 108l79 560q32 222 126.5 324t202.5 102q72 0 117 -38t62.5 -105.5t4.5 -154.5q-15 -108 -68 -209t-129.5 -193.5t-162 -176t-165.5 -157.5q-30 -207 2.5 -290.5t116.5 -83.5q66 0 121 32.5t125 133.5l44 -33
q-34 -55 -68.5 -94t-69.5 -63t-73.5 -35t-80.5 -11zM263 539q56 46 126 114t138 154t118.5 185t65.5 206q13 92 -19.5 139t-105.5 47q-97 0 -162.5 -90.5t-97.5 -321.5z" />
    <glyph glyph-name="uni2116" unicode="&#x2116;" horiz-adv-x="2142" 
d="M147 0l204 1446h58l620 -1290l182 1290h72l-204 -1446h-62l-616 1286l-182 -1286h-72zM1795 794q-134 0 -190.5 93.5t-36.5 238.5q14 101 58 177t111.5 118.5t152.5 42.5q128 0 188.5 -93t39.5 -245q-13 -97 -55.5 -172t-110 -117.5t-157.5 -42.5zM1804 858
q99 0 161.5 75t79.5 199q16 117 -25 190.5t-139 73.5q-99 0 -160.5 -73.5t-78.5 -190.5q-18 -124 23 -199t139 -75z" />
    <glyph glyph-name="uni2117" unicode="&#x2117;" horiz-adv-x="1486" 
d="M669 -20q-142 0 -258.5 57.5t-196 159.5t-113.5 237t-12 290q21 153 93 287.5t180.5 236.5t240.5 160t274 58q141 0 256.5 -58t195 -160t114 -236.5t12.5 -287.5q-22 -155 -94 -290t-180.5 -237t-240 -159.5t-271.5 -57.5zM681 66q119 0 233.5 46.5t211 132.5
t162.5 207.5t87 271.5q21 148 -10.5 269t-104 208t-174.5 134t-221 47q-122 0 -237.5 -47t-211.5 -134t-161 -208t-86 -269q-28 -200 34.5 -348t188.5 -229t289 -81zM491 328l110 780h250q75 0 130.5 -21t82.5 -65t17 -114q-18 -124 -98 -185t-190 -61h-184l-46 -334h-72z
M619 732h184q74 0 132 37.5t70 118.5q12 89 -37 119.5t-129 30.5h-176z" />
    <glyph glyph-name="uni2120" unicode="&#x2120;" horiz-adv-x="1847" 
d="M912 0l126 904h52l191 -849l436 849h49l-126 -904h-50l108 770l-391 -770h-66l-173 760l-107 -760h-49zM311 -13q-75 0 -136 27t-98 79.5t-40 127.5h51q7 -91 73.5 -138t156.5 -47q107 0 181.5 52t84.5 131q9 72 -20 120t-105 70l-176 50q-88 25 -130.5 75.5t-31.5 130.5
q9 72 50.5 128.5t107.5 89t149 32.5q93 0 150 -37.5t81 -94.5t16 -118h-51q3 75 -25.5 118.5t-76.5 62t-103 18.5q-49 0 -103.5 -20.5t-96 -64.5t-50.5 -113q-7 -58 25.5 -94.5t124.5 -64.5l169 -50q47 -14 77.5 -38t47 -55.5t21 -67.5t-0.5 -75q-8 -63 -47.5 -116.5
t-108 -85.5t-166.5 -32z" />
    <glyph glyph-name="trademark" unicode="&#x2122;" horiz-adv-x="1682" 
d="M747 0l126 904h52l191 -849l436 849h49l-126 -904h-50l108 770l-391 -770h-66l-173 760l-107 -760h-49zM241 0l120 854h-285l7 50h592l-6 -50h-263l-120 -854h-45z" />
    <glyph glyph-name="uni2126" unicode="&#x2126;" horiz-adv-x="1430" 
d="M136 0l12 84h322q-11 11 -49 45t-86.5 92.5t-90.5 143t-62 197t0 254.5q20 135 74.5 258.5t141.5 220.5t202 153t254 56q140 0 239 -56.5t158.5 -153t79.5 -219.5t1 -257q-16 -116 -50.5 -209.5t-92 -176.5t-145 -166.5t-210.5 -181.5h326l-12 -84h-430l12 90
q58 40 136 101t156 147.5t137.5 202.5t80.5 265q16 113 2 221.5t-61 197t-130.5 141t-208.5 52.5t-224 -52.5t-170.5 -141t-115.5 -197t-60 -221.5q-21 -147 5 -266.5t101 -228t202 -221.5l-14 -90h-430z" />
    <glyph glyph-name="uni2153" unicode="&#x2153;" horiz-adv-x="1503" 
d="M228 552l108 766h-174l6 49q117 0 153.5 21.5t43.5 73.5h40l-128 -910h-49zM162 -8h-71l1105 1470h69zM1065 -20q-109 2 -178 71.5t-59 184.5h52q-1 -91 51 -147.5t147 -56.5q108 0 182.5 56t87.5 146q15 107 -55 160t-177 53h-72l8 51h71q66 0 123 27.5t95.5 72
t45.5 93.5q9 64 -36.5 119t-153.5 55q-50 0 -102.5 -23.5t-91 -70.5t-48.5 -118h-51q11 79 55 138t108.5 92t134.5 33q81 0 137 -28t82 -78.5t17 -118.5q-10 -68 -61 -125t-137 -89q62 -19 100 -53.5t53 -81.5t7 -104q-11 -76 -56 -135t-116.5 -91.5t-162.5 -31.5z" />
    <glyph glyph-name="uni2154" unicode="&#x2154;" horiz-adv-x="1768" 
d="M75 558l8 52l4 27q12 83 52 139.5t97 98t119.5 77t119.5 74t96.5 89.5t49.5 124q12 85 -36 136.5t-140 51.5q-102 0 -166.5 -60.5t-80.5 -149.5h-51q18 106 99 184.5t210 78.5q112 0 171 -66.5t43 -176.5q-12 -83 -52.5 -139.5t-97.5 -97.5t-119 -76t-118.5 -73t-96 -89
t-50.5 -125l-3 -27h459l-8 -52h-509zM427 -8h-71l1105 1470h69zM1330 -20q-109 2 -178 71.5t-59 184.5h52q-1 -91 51 -147.5t147 -56.5q108 0 182.5 56t87.5 146q15 107 -55 160t-177 53h-72l8 51h71q66 0 123 27.5t95.5 72t45.5 93.5q9 64 -36.5 119t-153.5 55
q-50 0 -102.5 -23.5t-91 -70.5t-48.5 -118h-51q11 79 55 138t108.5 92t134.5 33q81 0 137 -28t82 -78.5t17 -118.5q-10 -68 -61 -125t-137 -89q62 -19 100 -53.5t53 -81.5t7 -104q-11 -76 -56 -135t-116.5 -91.5t-162.5 -31.5z" />
    <glyph glyph-name="oneeighth" unicode="&#x215b;" horiz-adv-x="1536" 
d="M228 552l108 766h-174l6 49q117 0 153.5 21.5t43.5 73.5h40l-128 -910h-49zM162 -8h-71l1105 1470h69zM1093 -22q-138 0 -210 70t-56 184q8 54 40.5 104.5t78.5 86t93 43.5q-60 26 -92 77.5t-21 130.5q17 114 102 177t197 63q113 0 179.5 -63t50.5 -177
q-11 -79 -56.5 -130.5t-113.5 -77.5q45 -8 81 -43.5t55 -86t11 -104.5q-16 -114 -108 -184t-231 -70zM1100 27q114 0 190.5 55t89.5 147q13 90 -47.5 149t-175.5 59q-112 0 -189.5 -59t-90.5 -149q-13 -92 49 -147t174 -55zM1165 494q97 0 162 48t77 134q12 87 -39.5 137.5
t-147.5 50.5q-94 0 -160.5 -51t-77.5 -137q-13 -86 39 -134t147 -48z" />
    <glyph glyph-name="threeeighths" unicode="&#x215c;" horiz-adv-x="1762" 
d="M345 544q-109 2 -178 71.5t-59 184.5h52q-1 -91 51 -147.5t147 -56.5q108 0 182.5 56t87.5 146q15 107 -55 160t-177 53h-72l8 51h71q66 0 123 27.5t95.5 72t45.5 93.5q9 64 -36.5 119t-153.5 55q-50 0 -102.5 -23.5t-91 -70.5t-48.5 -118h-51q11 79 55 138t108.5 92
t134.5 33q81 0 137 -28t82 -78.5t17 -118.5q-10 -68 -61 -125t-137 -89q62 -19 100 -53.5t53 -81.5t7 -104q-11 -76 -56 -135t-116.5 -91.5t-162.5 -31.5zM388 -8h-71l1105 1470h69zM1319 -22q-138 0 -210 70t-56 184q8 54 40.5 104.5t78.5 86t93 43.5q-60 26 -92 77.5
t-21 130.5q17 114 102 177t197 63q113 0 179.5 -63t50.5 -177q-11 -79 -56.5 -130.5t-113.5 -77.5q45 -8 81 -43.5t55 -86t11 -104.5q-16 -114 -108 -184t-231 -70zM1326 27q114 0 190.5 55t89.5 147q13 90 -47.5 149t-175.5 59q-112 0 -189.5 -59t-90.5 -149
q-13 -92 49 -147t174 -55zM1391 494q97 0 162 48t77 134q12 87 -39.5 137.5t-147.5 50.5q-94 0 -160.5 -51t-77.5 -137q-13 -86 39 -134t147 -48z" />
    <glyph glyph-name="fiveeighths" unicode="&#x215d;" horiz-adv-x="1754" 
d="M361 538q-109 0 -181.5 70t-82.5 183h54q14 -91 71.5 -147.5t148.5 -56.5q104 0 177 69t90 193q16 116 -42 181t-143 65q-64 0 -119 -20.5t-118 -97.5v0v0h-57l105 485h465l-7 -51h-416l-78 -368q45 56 105.5 79t126.5 23q68 0 125 -33t87.5 -98.5t16.5 -163.5
q-19 -139 -109.5 -225.5t-218.5 -86.5zM380 -8h-71l1105 1470h69zM1311 -22q-138 0 -210 70t-56 184q8 54 40.5 104.5t78.5 86t93 43.5q-60 26 -92 77.5t-21 130.5q17 114 102 177t197 63q113 0 179.5 -63t50.5 -177q-11 -79 -56.5 -130.5t-113.5 -77.5q45 -8 81 -43.5
t55 -86t11 -104.5q-16 -114 -108 -184t-231 -70zM1318 27q114 0 190.5 55t89.5 147q13 90 -47.5 149t-175.5 59q-112 0 -189.5 -59t-90.5 -149q-13 -92 49 -147t174 -55zM1383 494q97 0 162 48t77 134q12 87 -39.5 137.5t-147.5 50.5q-94 0 -160.5 -51t-77.5 -137
q-13 -86 39 -134t147 -48z" />
    <glyph glyph-name="seveneighths" unicode="&#x215e;" horiz-adv-x="1572" 
d="M204 550q32 93 97.5 235t158 305.5t205.5 318.5h-490l7 51h551l-9 -51q-75 -99 -149.5 -220.5t-139.5 -243.5t-112.5 -226t-68.5 -169h-50zM198 -8h-71l1105 1470h69zM1129 -22q-138 0 -210 70t-56 184q8 54 40.5 104.5t78.5 86t93 43.5q-60 26 -92 77.5t-21 130.5
q17 114 102 177t197 63q113 0 179.5 -63t50.5 -177q-11 -79 -56.5 -130.5t-113.5 -77.5q45 -8 81 -43.5t55 -86t11 -104.5q-16 -114 -108 -184t-231 -70zM1136 27q114 0 190.5 55t89.5 147q13 90 -47.5 149t-175.5 59q-112 0 -189.5 -59t-90.5 -149q-13 -92 49 -147t174 -55
zM1201 494q97 0 162 48t77 134q12 87 -39.5 137.5t-147.5 50.5q-94 0 -160.5 -51t-77.5 -137q-13 -86 39 -134t147 -48z" />
    <glyph glyph-name="partialdiff" unicode="&#x2202;" horiz-adv-x="1076" 
d="M446 -20q-120 0 -204.5 60t-123 162.5t-20.5 231.5q18 128 84 221.5t173 144t247 50.5q101 0 158.5 -26t123.5 -74q14 -7 18 -5.5t4 7.5q23 161 13.5 279.5t-49.5 196t-108 115t-162 37.5q-93 0 -156.5 -30.5t-125.5 -71.5l-22 58q39 41 97.5 70t124 44.5t126.5 15.5
q143 0 233.5 -81.5t121.5 -244t-3 -406.5q-34 -242 -111 -410.5t-188.5 -256t-250.5 -87.5zM440 64h2q94 0 182 61.5t156 172t102 258.5q6 32 6 46t-8 24q-39 59 -129.5 99.5t-186.5 40.5q-97 0 -178 -43.5t-134.5 -120t-67.5 -174.5q-14 -99 16 -181.5t93 -132.5t147 -50z
" />
    <glyph glyph-name="emptyset" unicode="&#x2205;" horiz-adv-x="1053" 
d="M151 314l-42 54l852 744l38 -54zM503 340q-99 0 -172.5 52.5t-109 140.5t-20.5 195q11 80 48.5 149.5t94 123t125.5 83.5t142 30q98 0 171.5 -52.5t109.5 -140t21 -193.5q-15 -107 -76 -195t-149 -140.5t-185 -52.5zM513 410q81 0 153 43t121.5 115t61.5 160
q12 86 -17.5 158t-89.5 115t-141 43t-153 -43t-120.5 -115t-60.5 -158q-13 -88 16 -160t89 -115t141 -43z" />
    <glyph glyph-name="uni2206" unicode="&#x2206;" horiz-adv-x="1176" 
d="M-33 0l750 1446l346 -1446h-1096zM91 84h868l-276 1126z" />
    <glyph glyph-name="product" unicode="&#x220f;" horiz-adv-x="1136" 
d="M157 0l192 1366h-198l10 80h1074l-10 -80h-200l-192 -1366h-82l192 1366h-512l-192 -1366h-82z" />
    <glyph glyph-name="summation" unicode="&#x2211;" horiz-adv-x="902" 
d="M-21 0l8 66l500 658l-288 652l10 70h750l-12 -78h-646l280 -642l-488 -648h706l-10 -78h-810z" />
    <glyph glyph-name="minus" unicode="&#x2212;" horiz-adv-x="980" 
d="M154 688l10 74l720 2l-10 -74z" />
    <glyph glyph-name="uni2215" unicode="&#x2215;" horiz-adv-x="1089" 
d="M103 -8h-72l1019 1470h67z" />
    <glyph glyph-name="uni2219" unicode="&#x2219;" horiz-adv-x="548" 
d="M291 642q-34 0 -55 27.5t-15 66.5q5 39 33.5 65.5t64.5 26.5q35 0 55.5 -26.5t14.5 -65.5q-4 -39 -33 -66.5t-65 -27.5z" />
    <glyph glyph-name="radical" unicode="&#x221a;" horiz-adv-x="1069" 
d="M398 -322l-192 966l-142 -58l-14 72l228 90l176 -958l712 1860h72l-750 -1972h-90z" />
    <glyph glyph-name="infinity" unicode="&#x221e;" horiz-adv-x="1255" 
d="M317 242q-69 0 -122 36.5t-79 102.5t-13 155q12 89 56.5 155t112 102.5t147.5 36.5q59 0 97.5 -19.5t67 -53t57.5 -75.5q12 -13 18.5 -13t19.5 13q31 32 69.5 66.5t88 58t112.5 23.5q71 0 122.5 -34.5t75.5 -98t12 -151.5v-2q-14 -96 -60 -163.5t-111 -103t-137 -35.5
q-59 0 -98.5 22t-69 59t-58.5 81q-6 11 -11 12.5t-17 -12.5q-12 -12 -36.5 -38t-60 -55t-81.5 -49t-102 -20zM331 330h6q46 0 91.5 25.5t84 61.5t64.5 69q24 29 25.5 43t-15.5 47q-37 80 -83 126t-115 46q-79 0 -136.5 -57t-71.5 -149q-13 -94 32 -153t118 -59zM883 330
q55 0 96.5 31.5t67 79.5t32.5 99q12 83 -26 145.5t-116 62.5h-2q-72 0 -133.5 -53.5t-114.5 -110.5q-22 -25 -22 -47t10 -37q38 -75 77.5 -111t73.5 -47.5t57 -11.5z" />
    <glyph glyph-name="integral" unicode="&#x222b;" horiz-adv-x="759" 
d="M99 -342q-75 0 -113 11t-89 47l40 86q47 -30 81.5 -42t80.5 -12q68 0 130 54.5t78 171.5q24 171 34 342t15 342t15 342t34 342q23 162 110 245t186 83q75 0 114 -11t88 -47l-40 -86q-46 30 -80.5 42t-81.5 12q-72 0 -134.5 -54.5t-79.5 -171.5q-24 -169 -34 -340.5
t-15.5 -344t-15.5 -344t-33 -339.5q-15 -108 -60 -181t-106 -110t-124 -37z" />
    <glyph glyph-name="approxequal" unicode="&#x2248;" horiz-adv-x="1004" 
d="M195 816l-14 64q41 35 92.5 64.5t127.5 29.5q48 0 87.5 -13.5t76.5 -30.5t76.5 -30.5t87.5 -13.5q72 0 114 27t70 55l14 -70q-22 -25 -74.5 -53.5t-135.5 -28.5q-50 0 -88.5 12.5t-72.5 29.5t-72.5 29.5t-88.5 12.5q-69 0 -118 -26t-82 -58zM143 442l-14 66
q41 35 92.5 63.5t127.5 28.5q48 0 87.5 -13.5t76.5 -30.5t76.5 -30.5t87.5 -13.5q71 0 113.5 27.5t70.5 54.5l14 -68q-22 -25 -74.5 -54.5t-135.5 -29.5q-54 0 -93.5 13t-73.5 30t-70.5 30t-84.5 13q-70 0 -118.5 -26.5t-81.5 -59.5z" />
    <glyph glyph-name="notequal" unicode="&#x2260;" horiz-adv-x="981" 
d="M244 168l476 1056h68l-472 -1056h-72zM182 884l10 74l720 2l-10 -74zM122 454l10 74l720 2l-10 -74z" />
    <glyph glyph-name="lessequal" unicode="&#x2264;" horiz-adv-x="981" 
d="M847 508l-660 304l12 94l748 308l-12 -96l-632 -258l556 -260zM81 164l10 74l720 -2l-12 -74z" />
    <glyph glyph-name="greaterequal" unicode="&#x2265;" horiz-adv-x="981" 
d="M131 508l12 92l632 260l-560 258l14 96l660 -308l-12 -94zM81 162l10 74l720 2l-10 -74z" />
    <glyph glyph-name="lozenge" unicode="&#x25ca;" horiz-adv-x="786" 
d="M269 0l-170 722l386 724h88l172 -720l-386 -726h-90zM333 82l322 640l-142 644l-322 -634z" />
    <glyph glyph-name="i.loclTRK" horiz-adv-x="433" 
d="M108 0l145 1034h73l-146 -1034h-72zM286 1326l16 120h88l-16 -120h-88z" />
    <glyph glyph-name="g.ss01" horiz-adv-x="1096" 
d="M423 -338q-64 0 -121.5 18t-101.5 53.5t-71 88t-32 120.5h78q14 -109 89.5 -158.5t168.5 -51.5q120 -2 198 41t120 110.5t54 140.5l24 168q-55 -94 -144.5 -137t-197.5 -43q-133 0 -220.5 64t-125 175t-22.5 251q12 113 53 212t107 175.5t153 119.5t191 43
q88 0 148.5 -34.5t95 -80t44.5 -77.5l26 172h62l-132 -1004q-16 -122 -77.5 -203.5t-156.5 -122t-210 -40.5zM501 86q127 0 199.5 42t106 106t42.5 130l42 344q8 61 -26.5 123.5t-100 104.5t-151.5 42q-112 0 -199.5 -60.5t-143.5 -167.5t-75 -248q-18 -123 14 -216.5
t107 -146.5t185 -53z" />
    <glyph glyph-name="l.ss01" horiz-adv-x="507" 
d="M152 0l194 1486h72l-194 -1486h-72z" />
    <glyph glyph-name="zero.osf" horiz-adv-x="1088" 
d="M467 -22q-197 0 -291.5 181.5t-42.5 556.5q36 253 114.5 419.5t189 248.5t241.5 82q196 0 291.5 -184t42.5 -562q-53 -376 -200.5 -559t-344.5 -183zM482 60q167 0 280.5 157t162.5 503q49 350 -22.5 507t-236.5 157t-282.5 -158t-166.5 -506q-48 -345 25.5 -502.5
t239.5 -157.5z" />
    <glyph glyph-name="one.osf" horiz-adv-x="739" 
d="M303 0l172 1218h-276l10 78q124 0 188.5 14.5t90.5 47.5t34 88h63l-204 -1446h-78z" />
    <glyph glyph-name="two.osf" horiz-adv-x="1048" 
d="M61 0l12 82l6 44q18 131 82.5 221.5t155 156.5t190 122t189.5 117t153.5 142t79.5 197q19 135 -57.5 217.5t-223.5 82.5q-108 0 -190 -44.5t-133.5 -120t-68.5 -169.5h-81q19 112 83.5 207t168 153t239.5 58q119 0 201 -48t119 -135t20 -203q-18 -131 -82.5 -221.5
t-155 -155.5t-189.5 -120.5t-189 -116.5t-152.5 -141.5t-79.5 -198.5l-6 -44h730l-12 -82h-809z" />
    <glyph glyph-name="three.osf" horiz-adv-x="1119" 
d="M465 -12q-115 2 -204.5 53t-136.5 141.5t-36 211.5h82q-2 -145 81.5 -234.5t234.5 -89.5q115 0 206.5 40.5t150 113t71.5 168.5q16 113 -30 188t-135.5 112.5t-203.5 37.5h-113l12 82h113q104 0 195.5 43.5t152 113.5t71.5 149q10 68 -19 131.5t-98.5 104t-184.5 40.5
q-80 0 -163 -37.5t-144.5 -112t-77.5 -186.5h-81q18 125 88.5 219t172.5 146.5t213 52.5q128 0 217.5 -45t131 -125.5t26.5 -187.5q-15 -108 -96 -199t-218 -141q98 -30 158.5 -85t84.5 -130t11 -165q-13 -91 -57 -167t-114.5 -131t-161.5 -84t-199 -28z" />
    <glyph glyph-name="four.osf" horiz-adv-x="1119" 
d="M668 0l58 418h-640l14 98l764 930h82l-131 -946h235l-12 -82h-236l-58 -418h-76zM176 500h555l115 812z" />
    <glyph glyph-name="five.osf" horiz-adv-x="1138" 
d="M506 -22q-116 0 -207 50.5t-147 141t-66 210.5h86q15 -97 60.5 -170t119 -113.5t169.5 -40.5q165 0 281 109t144 307q17 123 -20.5 210.5t-110.5 134.5t-163 47q-68 0 -128.5 -13t-121 -53t-127.5 -122v0v0h-91l167 770h739l-11 -80h-661l-124 -586q71 89 167.5 125.5
t201.5 36.5q108 0 199 -52t139 -156t26 -260q-20 -148 -92.5 -259.5t-183 -174t-245.5 -62.5z" />
    </font>
</defs>
</svg>
